↑↓torrent.by
Поиск
Логин: Регистрация
Пароль: Восстановить пароль

Здравствуй, мир / Привет, мир / Hello World (2019) BDRip-HEVC 1080p от FortunaTV | Force Media

Скачать zdravstvuy-mir-privet-hello-world-2019-bdrip-hevc-1080p-ot-fortunatv-force-media.torrent
U Магнитная ссылка Размер: 8.83 GB Раздают: 64 Качают: 18 Добавлен: 2020-07-09 19:00:57
Здравствуй, мир / Привет, мир / Hello World (2019) BDRip-HEVC 1080p от FortunaTV | Force Media

Название: Здравствуй, мир
Альтернативное название: Привет, мир
Оригинальное название: Hello World
Год выхода: 2019
Жанр: фантастика, мелодрама
Режиссер: Томохико Ито

О фильме:
Япония, Киото. 2027 год. Старшеклассник Наоми Катагаки сталкивается со странным парнем, который внешне похож на него. Более того, незнакомец утверждает, что он тоже Наоми, но прибыл из будущего, 2037 года. Разобравшись в ситуации и объединив свои силы, эта парочка должна изменить будущее и спасти одноклассницу Рури Итигё, с которой нынешний Наоми начнёт встречаться через три месяца.

 
Страна: Япония
Продолжительность: ~ 01:37:37
Перевод: Дублированный | Force Media

Файл
Формат: MKV
Кодек: HEVC (x.265)
Качество: BDRip-HEVC 1080p
Видео: 1920x1080, ~ 11 510 kb/s, 23.976 FPS. 10 bits
Аудио #1 (русский): AAC LC, ~ 160 kb/s, 2 channels, 48.0 kHz
Аудио #2 (японский): FLAC, ~ 1256 kb/s, 2 channels, 48.0 kHz
Субтитры: YakuSub Studio, NaikoSub (.srt) Полные (текст)

Релиз от: FortunaTV
Ретайминг: Adventurer_Kun


[+] MediaInfo

General
Unique ID : 285554985686016324180546004915978720736 (0xD6D3E3C7FA72085C5FFF26277B5755E0)
Complete name : [FortunaTV] Hello World [BDRip 1080p x265 FLAC].mkv
Format : Matroska
Format version : Version 4
File size : 8.83 GiB
Duration : 1 h 37 min
Overall bit rate mode : Variable
Overall bit rate : 12.9 Mb/s
Encoded date : UTC 2020-07-08 18:34:55
Writing application : mkvmerge v39.0.0 ('In The Waiting Line') 64-bit
Writing library : libebml v1.3.9 + libmatroska v1.5.2
Attachments : 8209_0.ttf / BKANT_0.TTF / calibri_0.ttf / seguisb_0.ttf / tahoma_0.ttf

Video
ID : 1
Format : HEVC
Format/Info : High Efficiency Video Coding
Format profile : Main 10@L4@Main
Codec ID : V_MPEGH/ISO/HEVC
Duration : 1 h 37 min
Bit rate : 11.5 Mb/s
Width : 1 920 pixels
Height : 1 080 pixels
Display aspect ratio : 16:9
Frame rate mode : Constant
Frame rate : 23.976 (24000/1001) FPS
Color space : YUV
Chroma subsampling : 4:2:0
Bit depth : 10 bits
Bits/(Pixel*Frame) : 0.232
Stream size : 7.86 GiB (89%)
Writing library : x265 3.3+14-4015cc7a1952:[DJATOM's Mod][Windows][GCC 9.2.1][64 bit] 10bit
Encoding settings : cpuid=1049583 / frame-threads=16 / numa-pools=24,24 / wpp / pmode / pme / no-psnr / no-ssim / log-level=2 / csv / csv-log-level=2 / input-csp=1 / input-res=1920x1080 / interlace=0 / total-frames=140580 / level-idc=0 / high-tier=1 / uhd-bd=0 / ref=4 / no-allow-non-conformance / no-repeat-headers / annexb / no-aud / no-hrd / info / hash=0 / no-temporal-layers / open-gop / min-keyint=23 / keyint=240 / gop-lookahead=0 / bframes=9 / b-adapt=2 / b-pyramid / bframe-bias=0 / rc-lookahead=20 / lookahead-slices=6 / scenecut=40 / hist-scenecut=0 / radl=0 / no-splice / no-intra-refresh / ctu=64 / min-cu-size=8 / no-rect / no-amp / max-tu-size=32 / tu-inter-depth=4 / tu-intra-depth=4 / limit-tu=0 / rdoq-level=2 / dynamic-rd=0.00 / no-ssim-rd / signhide / no-tskip / nr-intra=0 / nr-inter=0 / no-constrained-intra / no-strong-intra-smoothing / max-merge=5 / limit-refs=1 / limit-modes / me=3 / subme=5 / merange=48 / temporal-mvp / no-frame-dup / no-hme / weightp / weightb / analyze-src-pics / deblock=1:-1 / no-sao / no-sao-non-deblock / rd=5 / selective-sao=0 / no-early-skip / no-rskip / no-fast-intra / no-tskip-fast / no-cu-lossless / b-intra / no-splitrd-skip / rdpenalty=0 / psy-rd=2.00 / psy-rdoq=4.00 / rd-refine / no-lossless / cbqpoffs=-2 / crqpoffs=-2 / rc=crf / crf=15.0 / qcomp=0.72 / qpstep=4 / stats-write=0 / stats-read=0 / ipratio=1.40 / pbratio=1.30 / aq-mode=4 / aq-strength=0.86 / no-cutree / zone-count=0 / no-strict-cbr / qg-size=32 / no-rc-grain / qpmax=69 / qpmin=0 / no-const-vbv / sar=1 / overscan=0 / videoformat=5 / range=0 / colorprim=1 / transfer=1 / colormatrix=1 / chromaloc=0 / display-window=0 / cll=0,0 / min-luma=0 / max-luma=1023 / log2-max-poc-lsb=8 / vui-timing-info / vui-hrd-info / slices=1 / no-opt-qp-pps / no-opt-ref-list-length-pps / no-multi-pass-opt-rps / scenecut-bias=0.05 / hist-threshold=0.01 / no-opt-cu-delta-qp / no-aq-motion / no-hdr10 / no-hdr10-opt / no-dhdr10-opt / no-idr-recovery-sei / analysis-reuse-level=0 / analysis-save-reuse-level=0 / analysis-load-reuse-level=0 / scale-factor=0 / refine-intra=0 / refine-inter=0 / refine-mv=1 / refine-ctu-distortion=0 / no-limit-sao / ctu-info=0 / no-lowpass-dct / refine-analysis-type=0 / copy-pic=1 / max-ausize-factor=1.0 / no-dynamic-refine / no-single-sei / hevc-aq / no-svt / no-field / qp-adaptation-range=4.00 / no-scenecut-aware-qpconformance-window-offsets / right=0 / bottom=0
Language : Japanese
Default : Yes
Forced : No
Color range : Limited
Color primaries : BT.709
Transfer characteristics : BT.709
Matrix coefficients : BT.709

Audio #1
ID : 2
Format : AAC LC
Format/Info : Advanced Audio Codec Low Complexity
Codec ID : A_AAC-2
Duration : 1 h 37 min
Bit rate : 160 kb/s
Channel(s) : 2 channels
Channel layout : L R
Sampling rate : 48.0 kHz
Frame rate : 46.875 FPS (1024 SPF)
Compression mode : Lossy
Delay relative to video : 20 ms
Stream size : 111 MiB (1%)
Title : Force Media
Language : Russian
Default : Yes
Forced : No

Audio #2
ID : 3
Format : FLAC
Format/Info : Free Lossless Audio Codec
Codec ID : A_FLAC
Duration : 1 h 37 min
Bit rate mode : Variable
Bit rate : 1 256 kb/s
Channel(s) : 2 channels
Channel layout : L R
Sampling rate : 48.0 kHz
Frame rate : 11.719 FPS (4096 SPF)
Bit depth : 24 bits
Compression mode : Lossless
Stream size : 878 MiB (10%)
Writing library : CUETools FLACCL 2.1.6
Language : Japanese
Default : No
Forced : No

Text #1
ID : 4
Format : ASS
Codec ID : S_TEXT/ASS
Codec ID/Info : Advanced Sub Station Alpha
Duration : 1 h 36 min
Bit rate : 131 b/s
Count of elements : 1203
Compression mode : Lossless
Stream size : 93.1 KiB (0%)
Title : YakuSub Studio
Language : Russian
Default : No
Forced : No

Text #2
ID : 5
Format : ASS
Codec ID : S_TEXT/ASS
Codec ID/Info : Advanced Sub Station Alpha
Duration : 1 h 36 min
Bit rate : 100 b/s
Count of elements : 1102
Compression mode : Lossless
Stream size : 70.8 KiB (0%)
Title : NaikoSub
Language : Russian
Default : No
Forced : No

Menu
00:00:00.000 : en:Part A
00:02:15.510 : en:Part B
00:05:52.394 : en:Part C
00:10:32.841 : en:Part D
00:15:15.373 : en:Part E
00:22:31.934 : en:Part F
00:26:54.029 : en:Part G
00:29:16.755 : en:Part H
00:34:29.276 : en:Part I
00:42:15.867 : en:Part J
00:44:26.956 : en:Part K
00:52:14.381 : en:Part L
00:56:46.612 : en:Part M
00:59:27.689 : en:Part N
01:03:15.542 : en:Part O
01:07:17.408 : en:Part P
01:11:39.587 : en:Part Q
01:16:32.963 : en:Part R
01:19:32.851 : en:Part S
01:27:59.149 : en:Part T
01:31:07.462 : en:Part U
01:32:20.952 : en:END



Скриншоты:
[+] Всего файлов в раздаче - 1:
[FortunaTV] Hello World [BDRip 1080p x265 FLAC].mkv8.83 GB

Отзывы
Зарегистрируйтесь чтобы добавить комментарий.
Загрузите программу
  uTorrent.exe
Обратная связь
Copyleft ©