↑↓torrent.by
Поиск
Логин: Регистрация
Пароль: Восстановить пароль

Футурама / Futurama [S06] (2010-2011) BDRip-HEVC 1080p | 2x2

Скачать futurama-s06-2010-2011-bdrip-hevc-1080p-2x2.torrent
U Магнитная ссылка Размер: 6.41 GB Раздают: 61 Качают: 23 Добавлен: 2020-07-15 07:28:12
Футурама / Futurama [S06] (2010-2011) BDRip-HEVC 1080p | 2x2

Название: Футурама
Оригинальное название: Futurama
Год выхода: 1999
Жанр: Мультфильм, комедия, семейный
Режиссер: Питер Аванзино, Брэт Хааланд, Грегг Ванцо
В ролях: Билли Уэст, Кэти Сагал, Джон Ди Маджио, Тресс МакНилл, Фил ЛаМарр, Лорен Том, Морис ЛаМарш, Дэвид Херман, Фрэнк Уэлкер, Кэт Суси

О фильме:
Сериал начинается с того, что разносчик пиццы из Нью-Йорка Филипп Дж.Фрай случайно был заморожен в криогенной камере ровно в 00 часов 00 минут 00 секунд 1 января 2000 года
и разморожен 999 лет и 364 дня спустя — 31 декабря 2999 года. Фрай оказывается в далёком будущем в городе Новый Нью-Йорк.

Страна: США
Студия: 20th Century Fox Television, Gracie Films
Продолжительность: ~ 00:22:00
Перевод: Профессиональный (многоголосый, закадровый) Канал 2х2

Список эпизодов мультсериала «Футурама»:
Оригинальные 72 серии "Футурамы" были выпущены в виде четырех производственных сезонов.
При показе на телеканале FOX, серии до второго сезона соответствовали производственным блокам,
но начиная со второго сезона их стали показывать в произвольном порядке, поэтому и получилось пять телевизионных сезонов.

В раздаче серии идут в том порядке, в котором они были созданы.
Производственный порядок лучше отражает замысел создателей и помогает избежать потенциальных сценарных непоследовательностей и нестыковок в сюжетной линии.

https://en.wikipedia.org/wiki/List_of_Futurama_episodes#Home_media

Файл
Кодек: 1920x1080, 23.976 fps, HEVC, ~1200 kbps, 10bit
Качество: DVDRip-HEVC 1080p
Звук: AC3 / 2.0 / 48 kHz / 192 kbps / 16 bit | Канал 2x2
Звук: AAC / 5.1 / 48 kHz / ~192 kbps / 16 bit | Английский
Звук: AAC / 2.0 / 48 kHz / ~44 kbps / 16 bit | Комментарии создателей
Субтитры: Английские


[+] MediaInfo

General
Unique ID                   : 219562355846130491231708999232008949099 (0xA52E2BEC90540E84A9C8BA16C4070D6B)
Complete name               : O:VideoFuturama (1080p HEVC)Season 689 - Rebirth.mkv
Format                      : Matroska
Format version              : Version 4
File size                   : 250 MiB
Duration                    : 21 min 40 s
Overall bit rate            : 1 615 kb/s
Movie name                  : 089 - Rebirth
Encoded date                : UTC 2020-07-11 10:23:12
Writing application         : mkvmerge v8.3.0 ('Over the Horizon') 64bit
Writing library             : libebml v1.3.1 + libmatroska v1.4.2

Video
ID                          : 1
Format                      : HEVC
Format/Info                 : High Efficiency Video Coding
Format profile              : Main 10@L4@Main
Codec ID                    : V_MPEGH/ISO/HEVC
Duration                    : 21 min 40 s
Bit rate                    : 1 202 kb/s
Width                       : 1 920 pixels
Height                      : 1 080 pixels
Display aspect ratio        : 16:9
Frame rate mode             : Constant
Frame rate                  : 23.976 (24000/1001) FPS
Color space                 : YUV
Chroma subsampling          : 4:2:0
Bit depth                   : 10 bits
Bits/(Pixel*Frame)          : 0.024
Stream size                 : 186 MiB (74%)
Writing library             : x265 3.2+9-971180b100f8:[Windows][MSVC 1923][64 bit] 10bit
Encoding settings           : cpuid=1111039 / frame-threads=3 / numa-pools=12 / wpp / no-pmode / no-pme / no-psnr / ssim / log-level=2 / input-csp=1 / input-res=1920x1080 / interlace=0 / total-frames=31187 / level-idc=0 / high-tier=1 / uhd-bd=0 / ref=4 / no-allow-non-conformance / no-repeat-headers / annexb / no-aud / no-hrd / info / hash=0 / no-temporal-layers / open-gop / min-keyint=23 / keyint=250 / gop-lookahead=0 / bframes=8 / b-adapt=2 / b-pyramid / bframe-bias=40 / rc-lookahead=80 / lookahead-slices=4 / scenecut=40 / radl=0 / no-splice / no-intra-refresh / ctu=64 / min-cu-size=8 / rect / no-amp / max-tu-size=32 / tu-inter-depth=1 / tu-intra-depth=1 / limit-tu=0 / rdoq-level=2 / dynamic-rd=0.00 / ssim-rd / signhide / no-tskip / nr-intra=0 / nr-inter=0 / constrained-intra / strong-intra-smoothing / max-merge=5 / limit-refs=3 / limit-modes / me=4 / subme=7 / merange=57 / temporal-mvp / no-frame-dup / no-hme / weightp / no-weightb / no-analyze-src-pics / deblock=0:0 / sao / no-sao-non-deblock / rd=4 / selective-sao=4 / early-skip / rskip / no-fast-intra / no-tskip-fast / no-cu-lossless / no-b-intra / splitrd-skip / rdpenalty=0 / psy-rd=3.50 / psy-rdoq=2.50 / no-rd-refine / no-lossless / cbqpoffs=0 / crqpoffs=0 / rc=abr / bitrate=1200 / qcomp=0.60 / qpstep=4 / stats-write=0 / stats-read=2 / cplxblur=20.0 / qblur=0.5 / ipratio=1.40 / pbratio=1.30 / aq-mode=3 / aq-strength=0.40 / cutree / zone-count=0 / no-strict-cbr / qg-size=32 / no-rc-grain / qpmax=69 / qpmin=0 / no-const-vbv / sar=0 / overscan=0 / videoformat=5 / range=0 / colorprim=1 / transfer=1 / colormatrix=1 / chromaloc=0 / display-window=0 / cll=0,0 / min-luma=0 / max-luma=1023 / log2-max-poc-lsb=8 / vui-timing-info / vui-hrd-info / slices=1 / no-opt-qp-pps / no-opt-ref-list-length-pps / multi-pass-opt-rps / scenecut-bias=0.05 / no-opt-cu-delta-qp / no-aq-motion / no-hdr / no-hdr-opt / no-dhdr10-opt / no-idr-recovery-sei / analysis-load / analysis-reuse-level=10 / scale-factor=0 / refine-intra=0 / refine-inter=0 / refine-mv=1 / refine-ctu-distortion=0 / limit-sao / ctu-info=0 / no-lowpass-dct / refine-analysis-type=0 / copy-pic=1 / max-ausize-factor=1.0 / no-dynamic-refine / no-single-sei / no-hevc-aq / no-svt / no-field / qp-adaptation-range=1.00
Default                     : Yes
Forced                      : No
Color range                 : Limited
Color primaries             : BT.709
Transfer characteristics    : BT.709
Matrix coefficients         : BT.709

Audio #1
ID                          : 2
Format                      : AC-3
Format/Info                 : Audio Coding 3
Commercial name             : Dolby Digital
Codec ID                    : A_AC3
Duration                    : 21 min 40 s
Bit rate mode               : Constant
Bit rate                    : 192 kb/s
Channel(s)                  : 2 channels
Channel layout              : L R
Sampling rate               : 48.0 kHz
Frame rate                  : 31.250 FPS (1536 SPF)
Compression mode            : Lossy
Stream size                 : 29.8 MiB (12%)
Language                    : Russian
Service kind                : Complete Main
Default                     : Yes
Forced                      : Yes

Audio #2
ID                          : 3
Format                      : AAC LC SBR
Format/Info                 : Advanced Audio Codec Low Complexity with Spectral Band Replication
Commercial name             : HE-AAC
Format settings             : Explicit
Codec ID                    : A_AAC-2
Duration                    : 21 min 40 s
Bit rate                    : 169 kb/s
Channel(s)                  : 6 channels
Channel layout              : C L R Ls Rs LFE
Sampling rate               : 48.0 kHz
Frame rate                  : 23.438 FPS (2048 SPF)
Compression mode            : Lossy
Delay relative to video     : 31 ms
Stream size                 : 26.2 MiB (10%)
Language                    : English
Default                     : No
Forced                      : No

Audio #3
ID                          : 4
Format                      : AAC LC SBR
Format/Info                 : Advanced Audio Codec Low Complexity with Spectral Band Replication
Commercial name             : HE-AAC
Format settings             : Explicit
Codec ID                    : A_AAC-2
Duration                    : 21 min 40 s
Bit rate                    : 41.2 kb/s
Channel(s)                  : 2 channels
Channel layout              : L R
Sampling rate               : 48.0 kHz
Frame rate                  : 23.438 FPS (2048 SPF)
Compression mode            : Lossy
Delay relative to video     : 31 ms
Stream size                 : 6.39 MiB (3%)
Title                       : Commentary
Language                    : English
Default                     : No
Forced                      : No

Text
ID                          : 5
Format                      : VobSub
Muxing mode                 : zlib
Codec ID                    : S_VOBSUB
Codec ID/Info               : Picture based subtitle format used on DVDs
Duration                    : 21 min 36 s
Bit rate                    : 8 501 b/s
Count of elements           : 371
Stream size                 : 1.31 MiB (1%)
Language                    : English
Default                     : No
Forced                      : No

Menu
00:00:00.000                : en:Chapter 01
00:07:12.557                : en:Chapter 02
00:14:26.824                : en:Chapter 03
00:21:07.474                : en:Chapter 04




Скриншоты:
[+] Всего файлов в раздаче - 26:
089 - Rebirth.mkv250.48 MB
090 - In-A-Gadda-Da-Leela.mkv252.70 MB
091 - Attack of the Killer App.mkv249.71 MB
092 - Proposition Infinity.mkv252.07 MB
093 - The Duh-Vinci Code.mkv253.04 MB
094 - Lethal Inspection.mkv252.07 MB
095 - The Late Philip J. Fry.mkv253.07 MB
096 - That Darn Katz!.mkv254.15 MB
097 - A Clockwork Origin.mkv250.33 MB
098 - The Prisoner of Benda.mkv253.23 MB
099 - Lrrreconcilable Ndndifferences.mkv251.66 MB
100 - The Mutants Are Revolting.mkv254.93 MB
101 - The Futurama Holiday Spectacular.mkv252.54 MB
102 - The Silence of the Clamps.mkv250.55 MB
103 - Möbius Dick.mkv250.38 MB
104 - Law and Oracle.mkv253.93 MB
105 - Benderama.mkv253.07 MB
106 - The Tip of the Zoidberg.mkv253.32 MB
107 - Ghost in the Machines.mkv253.12 MB
108 - Neutopia.mkv253.64 MB
109 - Yo Leela Leela.mkv252.92 MB
110 - Fry am the Egg Man.mkv249.09 MB
112 - Cold Warriors.mkv252.94 MB
113 - Overclockwise.mkv254.13 MB
114 - Reincarnation.mkv249.83 MB

Похожие раздачи по запросу - футурама:
2020-07-15 U Футурама / Futurama [S05] (2007-2009) WEBRip-HEVC 1080p 8.60 GB ↑ 33 ↓ 29
2020-07-15 U Футурама / Futurama [S03] (2000-2001) WEBRip-HEVC 1080p | 2x2 5.70 GB ↑ 44 ↓ 27
2020-07-15 U Футурама / Futurama [S02] (1999-2000) WEBRip-HEVC 1080p | 2x2 4.89 GB ↑ 51 ↓ 22
2020-07-15 U Футурама / Futurama [S04] (2002-2003) WEBRip-HEVC 1080p | 2x2 4.63 GB ↑ 48 ↓ 22
2020-07-14 U Футурама / Futurama [S01] (1999) WEBRip-HEVC 1080p | 2x2 3.34 GB ↑ 93 ↓ 53

Отзывы
Зарегистрируйтесь чтобы добавить комментарий.
Обратная связь
Copyleft ©