↑↓torrent.by
Поиск
Логин: Регистрация
Пароль: Восстановить пароль

Футурама / Futurama [S05] (2007-2009) WEBRip-HEVC 1080p

Скачать futurama-s05-2007-2009-webrip-hevc-1080p.torrent
U Магнитная ссылка Размер: 8.60 GB Раздают: 33 Качают: 29 Добавлен: 2020-07-15 07:29:42
Футурама / Futurama [S05] (2007-2009) WEBRip-HEVC 1080p

Название: Футурама
Оригинальное название: Futurama
Год выхода: 2007-2009
Жанр: Мультфильм, комедия, семейный
Режиссер: Дуэйн Кейри-Хил, Питер Аванзино,
В ролях: Билли Уэст, Кэти Сагал, Джон Ди Маджио, Тресс МакНилл, Фил ЛаМарр, Лорен Том, Морис ЛаМарш, Дэвид Херман, Фрэнк Уэлкер, Кэт Суси

О фильме:
Отложите ваши планы на будущее! ФУТУРАМА возвращается!
Ужасные пришельцы-нудисты, используя хакерские программки, вынуждают Бендера, против его воли, отправиться в путешествие во времени и украсть (слегка против его воли) все самое ценное,
что когда-либо было на Земле. Как бы сказал робот, работающий на пивном топливе: "Мы вернулись, детка!"

Пятый сезон состоит из четырёх полнометражных фильмов:
1. Большой куш Бендера / Bender's Big Score
2. Зверь с миллиардом спин / The Beast with a Billion Backs
3. Игра Бендера / Bender's Game
4. В дикие зеленые дали / Into the Wild Green Yonder

https://ru.wikipedia.org/wiki/Список_эпизодов_мультсериала_«Футурама»#Сезон_5:_2008—2009

Страна: США
Студия: 20th Century Fox Television, Gracie Films
Продолжительность: ~ 01:28:00
Перевод: Профессиональный (многоголосый, закадровый)

Файл
Кодек: 1920x1080, 23.976 fps, HEVC, ~2500 kbps, 10bit
Качество: WEBRip-HEVC 1080p
Звук: AC3 / 5.1 / 48 kHz / 384 kbps / 16 bit | Русский (Лицензия)
Звук: AAC / 5.1 / 48 kHz / 448 kbps / 16 bit | Английский
Звук: AAC / 2.0 / 48 kHz / 96 kbps / 16 bit | Комментарии создателей
Субтитры: Русские, Английские


[+] MediaInfo

General
Unique ID                   : 172456341084058685767610438183056253266 (0x81BDE2156B358955AFA0886C23232152)
Complete name               : O:VideoFuturama (1080p HEVC)Season 573-076 - Bender's Big Score.mkv
Format                      : Matroska
Format version              : Version 4
File size                   : 2.34 GiB
Duration                    : 1 h 28 min
Overall bit rate            : 3 763 kb/s
Movie name                  : Bender's Big Score
Encoded date                : UTC 2020-06-22 15:22:13
Writing application         : mkvmerge v8.3.0 ('Over the Horizon') 64bit
Writing library             : libebml v1.3.1 + libmatroska v1.4.2
Cover                       : Yes
Attachments                 : cover.jpg

Video
ID                          : 1
Format                      : HEVC
Format/Info                 : High Efficiency Video Coding
Format profile              : Main 10@L4@Main
Codec ID                    : V_MPEGH/ISO/HEVC
Duration                    : 1 h 28 min
Bit rate                    : 2 640 kb/s
Width                       : 1 920 pixels
Height                      : 1 080 pixels
Display aspect ratio        : 16:9
Frame rate mode             : Constant
Frame rate                  : 23.976 (24000/1001) FPS
Color space                 : YUV
Chroma subsampling          : 4:2:0
Bit depth                   : 10 bits
Bits/(Pixel*Frame)          : 0.053
Stream size                 : 1.64 GiB (70%)
Writing library             : x265 2.5+37-aa9649a2aa8c:[Windows][MSVC 1911][64 bit] 10bit
Encoding settings           : cpuid=1050111 / frame-threads=2 / numa-pools=4 / wpp / no-pmode / no-pme / no-psnr / no-ssim / log-level=2 / input-csp=1 / input-res=1920x1080 / interlace=0 / total-frames=127820 / level-idc=0 / high-tier=1 / uhd-bd=0 / ref=4 / no-allow-non-conformance / no-repeat-headers / annexb / no-aud / no-hrd / info / hash=0 / no-temporal-layers / open-gop / min-keyint=23 / keyint=250 / bframes=8 / b-adapt=2 / b-pyramid / bframe-bias=0 / rc-lookahead=80 / lookahead-slices=4 / scenecut=40 / no-intra-refresh / ctu=64 / min-cu-size=8 / rect / no-amp / max-tu-size=32 / tu-inter-depth=1 / tu-intra-depth=1 / limit-tu=0 / rdoq-level=2 / dynamic-rd=0.00 / no-ssim-rd / signhide / no-tskip / nr-intra=0 / nr-inter=0 / no-constrained-intra / no-strong-intra-smoothing / max-merge=3 / limit-refs=3 / limit-modes / me=3 / subme=5 / merange=57 / temporal-mvp / weightp / weightb / no-analyze-src-pics / deblock=-3:-3 / no-sao / no-sao-non-deblock / rd=4 / no-early-skip / no-rskip / no-fast-intra / no-tskip-fast / no-cu-lossless / no-b-intra / no-splitrd-skip / rdpenalty=0 / psy-rd=0.70 / psy-rdoq=1.00 / no-rd-refine / analysis-reuse-mode=0 / no-lossless / cbqpoffs=0 / crqpoffs=0 / rc=crf / crf=20.0 / qcomp=0.60 / qpstep=4 / stats-write=0 / stats-read=0 / ipratio=1.40 / pbratio=1.30 / aq-mode=3 / aq-strength=1.00 / cutree / zone-count=0 / no-strict-cbr / qg-size=32 / no-rc-grain / qpmax=69 / qpmin=0 / no-const-vbv / sar=0 / overscan=0 / videoformat=5 / range=0 / colorprim=2 / transfer=2 / colormatrix=2 / chromaloc=0 / display-window=0 / max-cll=0,0 / min-luma=0 / max-luma=1023 / log2-max-poc-lsb=8 / vui-timing-info / vui-hrd-info / slices=1 / opt-qp-pps / opt-ref-list-length-pps / no-multi-pass-opt-rps / scenecut-bias=0.05 / no-opt-cu-delta-qp / aq-motion / no-hdr / no-hdr-opt / no-dhdr10-opt / analysis-reuse-level=5 / scale-factor=0 / refine-intra=0 / refine-inter=0 / refine-mv=0 / no-limit-sao / ctu-info=0 / no-lowpass-dct
Default                     : Yes
Forced                      : No

Audio #1
ID                          : 2
Format                      : AC-3
Format/Info                 : Audio Coding 3
Commercial name             : Dolby Digital
Codec ID                    : A_AC3
Duration                    : 1 h 28 min
Bit rate mode               : Constant
Bit rate                    : 384 kb/s
Channel(s)                  : 6 channels
Channel layout              : L R C LFE Ls Rs
Sampling rate               : 48.0 kHz
Frame rate                  : 31.250 FPS (1536 SPF)
Compression mode            : Lossy
Stream size                 : 244 MiB (10%)
Title                       : License R5
Language                    : Russian
Service kind                : Complete Main
Default                     : Yes
Forced                      : Yes

Audio #2
ID                          : 3
Format                      : AC-3
Format/Info                 : Audio Coding 3
Commercial name             : Dolby Digital
Codec ID                    : A_AC3
Duration                    : 1 h 28 min
Bit rate mode               : Constant
Bit rate                    : 192 kb/s
Channel(s)                  : 2 channels
Channel layout              : L R
Sampling rate               : 48.0 kHz
Frame rate                  : 31.250 FPS (1536 SPF)
Compression mode            : Lossy
Stream size                 : 122 MiB (5%)
Title                       : REN-TV (Б.Быстров, И. Савина)
Language                    : Russian
Service kind                : Complete Main
Default                     : No
Forced                      : No

Audio #3
ID                          : 4
Format                      : AC-3
Format/Info                 : Audio Coding 3
Commercial name             : Dolby Digital
Codec ID                    : A_AC3
Duration                    : 1 h 28 min
Bit rate mode               : Constant
Bit rate                    : 448 kb/s
Channel(s)                  : 6 channels
Channel layout              : L R C LFE Ls Rs
Sampling rate               : 48.0 kHz
Frame rate                  : 31.250 FPS (1536 SPF)
Compression mode            : Lossy
Delay relative to video     : 18 ms
Stream size                 : 285 MiB (12%)
Title                       : Original R1
Language                    : English
Service kind                : Complete Main
Default                     : No
Forced                      : No

Audio #4
ID                          : 5
Format                      : AC-3
Format/Info                 : Audio Coding 3
Commercial name             : Dolby Digital
Codec ID                    : A_AC3
Duration                    : 1 h 28 min
Bit rate mode               : Constant
Bit rate                    : 96.0 kb/s
Channel(s)                  : 2 channels
Channel layout              : L R
Sampling rate               : 48.0 kHz
Frame rate                  : 31.250 FPS (1536 SPF)
Compression mode            : Lossy
Stream size                 : 61.0 MiB (3%)
Title                       : Director's comments
Language                    : English
Service kind                : Complete Main
Default                     : No
Forced                      : No

Text #1
ID                          : 6
Format                      : UTF-8
Codec ID                    : S_TEXT/UTF8
Codec ID/Info               : UTF-8 Plain Text
Duration                    : 1 h 28 min
Bit rate                    : 133 b/s
Count of elements           : 1294
Stream size                 : 86.8 KiB (0%)
Language                    : Russian
Default                     : No
Forced                      : No

Text #2
ID                          : 7
Format                      : UTF-8
Codec ID                    : S_TEXT/UTF8
Codec ID/Info               : UTF-8 Plain Text
Duration                    : 1 h 28 min
Bit rate                    : 194 b/s
Count of elements           : 1918
Stream size                 : 127 KiB (0%)
Title                       : Director's comments
Language                    : Russian
Default                     : No
Forced                      : No

Text #3
ID                          : 8
Format                      : UTF-8
Codec ID                    : S_TEXT/UTF8
Codec ID/Info               : UTF-8 Plain Text
Duration                    : 1 h 28 min
Bit rate                    : 79 b/s
Count of elements           : 1526
Stream size                 : 51.7 KiB (0%)
Language                    : English
Default                     : No
Forced                      : No




Скриншоты:
[+] Всего файлов в раздаче - 4:
077-080 - The Beast with a Billion Backs.mkv2.28 GB
085-088 - Into the Wild Green Yonder.mkv2.06 GB

Похожие раздачи по запросу - футурама:
2020-07-15 U Футурама / Futurama [S03] (2000-2001) WEBRip-HEVC 1080p | 2x2 5.70 GB ↑ 44 ↓ 27
2020-07-15 U Футурама / Futurama [S02] (1999-2000) WEBRip-HEVC 1080p | 2x2 4.89 GB ↑ 50 ↓ 22
2020-07-15 U Футурама / Futurama [S04] (2002-2003) WEBRip-HEVC 1080p | 2x2 4.63 GB ↑ 48 ↓ 22
2020-07-15 U Футурама / Futurama [S06] (2010-2011) BDRip-HEVC 1080p | 2x2 6.41 GB ↑ 61 ↓ 23
2020-07-14 U Футурама / Futurama [S01] (1999) WEBRip-HEVC 1080p | 2x2 3.34 GB ↑ 91 ↓ 53

Отзывы
Зарегистрируйтесь чтобы добавить комментарий.
Обратная связь
Copyleft ©