↑↓torrent.by
Поиск
Логин: Регистрация
Пароль: Восстановить пароль

Верность (2019) BDRip 1080p от ExKinoRay | GER Transfer | Лицензия

Скачать vernost-2019-bdrip-1080p-ot-exkinoray-ger-transfer-licenziya.torrent
U Магнитная ссылка Размер: 10.95 GB Раздают: 141 Качают: 76 Добавлен: 2020-07-24 19:49:33
Верность (2019) BDRip 1080p от ExKinoRay | GER Transfer | Лицензия

Оригинальное название: Верность
Год выпуска: 2019
Жанр:  Драма
Режиссер: Нигина Сайфуллаева
В ролях: Александр Паль, Евгения Громова, Алексей Агранович, Марина Васильева (II), Анна Котова-Дерябина, Павел Ворожцов, Елизавета Лотова, Анастасия Денисова, Кирилл Каганович

О фильме:   Лена — талантливый акушер-гинеколог, её муж Сережа — артист провинциального драмтеатра. Близость и нежность у них есть, секса — нет. Лена подозревает, что Сережа завёл роман на стороне, но она мучается молча и не выдаёт свою ревность. Вместо того чтобы выяснить отношения с мужем, Лена сама начинает изменять ему со случайными мужчинами. Она, конечно, не думала, что её параллельная жизнь окажется не менее подлинной, чем основная. И не менее реальной. И настолько опасной.

Выпущено: Россия, PREMIER Studios, Droog Drooga Films при поддержке Министерства культуры РФ
Продолжительность: 01:18:24
Язык: Русский

Формат: MKV
Качество: BDRip 1080p
Видео: MPEG-4 AVC, 1920x804, 17 Mbps, 24.000 fps
Аудио : 48 kHz, DTS, 5.1, 1509 Kbps | RUS |
Аудио : 48 kHz, AC3, 5.1, 640 Kbps | RUS |

Релиз:

Автор релиза:


[+] ОтчетМедиаИнфо

General
Unique ID                   : 218920208888148465802955704095364195038 (0xA4B27FA2798F6BED8DA595954679A2DE)
Complete name               : D:Vernost.2019.BDRip.1080p.ExKinoRay.mkv
Format                      : Matroska
Format version              : Version 4
File size                   : 11.0 GiB
Duration                    : 1 h 21 min
Overall bit rate            : 19.2 Mb/s
Movie name                  : Vernost 2019 from ExKinoRay
Encoded date                : UTC 2020-07-23 23:07:41
Writing application         : mkvmerge v7.3.0 ('Nouages') 64bit built on Oct 22 2014 18:53:34
Writing library             : libebml v1.3.0 + libmatroska v1.4.1

Video
ID                          : 1
Format                      : AVC
Format/Info                 : Advanced Video Codec
Format profile              : High@L4.1
Format settings             : CABAC / 5 Ref Frames
Format settings, CABAC      : Yes
Format settings, Reference  : 5 frames
Codec ID                    : V_MPEG4/ISO/AVC
Duration                    : 1 h 21 min
Bit rate                    : 17.0 Mb/s
Width                       : 1 920 pixels
Height                      : 804 pixels
Display aspect ratio        : 2.40:1
Frame rate mode             : Constant
Frame rate                  : 24.000 FPS
Color space                 : YUV
Chroma subsampling          : 4:2:0
Bit depth                   : 8 bits
Scan type                   : Progressive
Bits/(Pixel*Frame)          : 0.459
Stream size                 : 9.72 GiB (89%)
Writing library             : x264 core 148 r2705kMod 3f5ed56
Encoding settings           : cabac=1 / ref=5 / deblock=1:-2:-2 / analyse=0x3:0x133 / me=umh / subme=10 / psy=1 / fade_compensate=0.00 / psy_rd=1.00:0.00 / mixed_ref=1 / me_range=32 / chroma_me=1 / trellis=2 / 8x8dct=1 / cqm=0 / deadzone=21,11 / fast_pskip=0 / chroma_qp_offset=-2 / threads=24 / lookahead_threads=4 / sliced_threads=0 / nr=0 / decimate=0 / interlaced=0 / bluray_compat=0 / constrained_intra=0 / fgo=0 / bframes=9 / b_pyramid=2 / b_adapt=2 / b_bias=0 / direct=1 / weightb=1 / open_gop=0 / weightp=2 / keyint=240 / keyint_min=24 / scenecut=40 / intra_refresh=0 / rc_lookahead=50 / rc=crf / mbtree=0 / crf=16.8000 / qcomp=0.60 / qpmin=0 / qpmax=51 / qpstep=4 / vbv_maxrate=50000 / vbv_bufsize=62500 / crf_max=0.0 / nal_hrd=none / filler=0 / ip_ratio=1.40 / pb_ratio=1.30 / aq=3:0.80
Language                    : German
Default                     : Yes
Forced                      : No

Audio #1
ID                          : 2
Format                      : DTS
Format/Info                 : Digital Theater Systems
Codec ID                    : A_DTS
Duration                    : 1 h 21 min
Bit rate mode               : Constant
Bit rate                    : 1 509 kb/s
Channel(s)                  : 6 channels
Channel layout              : C L R Ls Rs LFE
Sampling rate               : 48.0 kHz
Frame rate                  : 93.750 FPS (512 SPF)
Bit depth                   : 24 bits
Compression mode            : Lossy
Stream size                 : 883 MiB (8%)
Language                    : Russian
Default                     : Yes
Forced                      : No

Audio #2
ID                          : 3
Format                      : AC-3
Format/Info                 : Audio Coding 3
Commercial name             : Dolby Digital
Codec ID                    : A_AC3
Duration                    : 1 h 21 min
Bit rate mode               : Constant
Bit rate                    : 640 kb/s
Channel(s)                  : 6 channels
Channel layout              : L R C LFE Ls Rs
Sampling rate               : 48.0 kHz
Frame rate                  : 31.250 FPS (1536 SPF)
Compression mode            : Lossy
Stream size                 : 374 MiB (3%)
Language                    : Russian
Service kind                : Complete Main
Default                     : No
Forced                      : No

Menu
00:00:00.000                : ru:Глава 01
00:02:59.875                : ru:Глава 02
00:08:27.583                : ru:Глава 03
00:13:29.042                : ru:Глава 04
00:19:43.167                : ru:Глава 05
00:24:43.917                : ru:Глава 06
00:29:47.167                : ru:Глава 07
00:36:36.375                : ru:Глава 08
00:42:06.875                : ru:Глава 09
00:47:30.083                : ru:Глава 10
00:52:24.042                : ru:Глава 11
00:57:09.750                : ru:Глава 12
01:02:25.500                : ru:Глава 13
01:05:27.667                : ru:Глава 14
01:12:57.708                : ru:Глава 15
01:18:21.375                : ru:Глава 16



Скриншоты:
[+] Всего файлов в раздаче - 1:
Vernost.2019.BDRip.1080p.ExKinoRay.mkv10.95 GB

Показать еще раздачи по запросу верность:
2020-07-28 U Верность (2019) BDRip-AVC от Files-x | GER Transfer | Лицензия 1.46 GB ↑ 37 ↓ 11
2020-07-27 U Верность (2019) BDRip от Twister & ExKinoRay | GER Transfer | Лицензия 1.46 GB ↑ 27 ↓ 7
2020-07-27 U Верность (2019) BDRip 1080p от OlLanDGroup | GER Transfer | Лицензия 7.10 GB ↑ 28 ↓ 13
2020-07-25 U Верность (2019) BDRemux 1080p | GER Transfer | Лицензия 21.83 GB ↑ 27 ↓ 15
2020-07-25 U Верность (2019) HDRip-AVC от ExKinoRay | GER Transfer | Лицензия 745.92 MB ↑ 24 ↓ 7
2020-07-24 U Верность (2019) HDRip от Portablius | GER Transfer | Лицензия 740.79 MB ↑ 76 ↓ 13
2020-07-24 U Верность (2019) BDRip от MegaPeer | GER Transfer | Лицензия 1.46 GB ↑ 108 ↓ 35

Отзывы
Зарегистрируйтесь чтобы добавить комментарий.
Обратная связь
Copyleft ©