↑↓torrent.by
Поиск
Логин: Регистрация
Пароль: Восстановить пароль

Верность (2019) HDRip-AVC от ExKinoRay | GER Transfer | Лицензия

Скачать vernost-2019-hdrip-avc-ot-exkinoray-ger-transfer-licenziya.torrent
U Магнитная ссылка Размер: 745.92 MB Раздают: 24 Качают: 7 Добавлен: 2020-07-25 05:15:56
Верность (2019) HDRip-AVC от ExKinoRay | GER Transfer | Лицензия

Название: Верность
Год выхода: 2019
Жанр: Драма
Режиссер: Нигина Сайфуллаева
В ролях: Александр Паль, Евгения Громова, Алексей Агранович, Марина Васильева (II), Анна Котова-Дерябина, Павел Ворожцов, Елизавета Лотова, Анастасия Денисова, Кирилл Каганович

О фильме:
Лена — талантливый акушер-гинеколог, её муж Сережа — артист провинциального драмтеатра. Близость и нежность у них есть, секса — нет. Лена подозревает, что Сережа завёл роман на стороне, но она мучается молча и не выдаёт свою ревность. Вместо того чтобы выяснить отношения с мужем, Лена сама начинает изменять ему со случайными мужчинами. Она, конечно, не думала, что её параллельная жизнь окажется не менее подлинной, чем основная. И не менее реальной. И настолько опасной.

Страна: Россия
Студия: PREMIER Studios, Droog Drooga Films при поддержке Министерства культуры РФ
Продолжительность: 01:21:46
Язык: Русский

Файл
Формат: MKV
Качество: HDRip-AVC
Видео: MPEG-4 AVC, 784x328, - 1198 Кбит/с
Аудио:  AAC-HE, 2 ch, - 76 Кбит/с
Субтитры: Нет


[+] MI
Общее
Уникальный идентификатор : 60975260759828764704995840320133005509 (0x2DDF687662A7BFD13E9AA1F7030A00C5)
Полное имя : D:MOVIESVernost 2019 HDRip-AVC.ExKinoRay.mkv
Формат : Matroska
Версия формата : Version 4
Размер файла : 746 Мбайт
Продолжительность : 1 ч. 21 м.
Общий поток : 1 275 Кбит/сек
Дата кодирования : UTC 2020-07-24 17:17:37
Программа кодирования : mkvmerge v45.0.0 ('Heaven in Pennies') 64-bit
Библиотека кодирования : libebml v1.3.10 + libmatroska v1.5.2

Видео
Идентификатор : 1
Формат : AVC
Формат/Информация : Advanced Video Codec
Профиль формата : High@L4.1
Настройки формата : CABAC / 12 Ref Frames
Параметр CABAC формата : Да
Параметр RefFrames формата : 12 кадров
Идентификатор кодека : V_MPEG4/ISO/AVC
Продолжительность : 1 ч. 21 м.
Битрейт : 1 198 Кбит/сек
Ширина : 784 пикселя
Высота : 328 пикселей
Соотношение сторон : 2,40:1
Режим частоты кадров : Постоянный
Частота кадров : 24,000 кадра/сек
Цветовое пространство : YUV
Субдискретизация насыщенности : 4:2:0
Битовая глубина : 8 бит
Тип развёртки : Прогрессивная
Бит/(Пиксели*Кадры) : 0.194
Размер потока : 700 Мбайт (94%)
Библиотека кодирования : x264 core 160 r3000 33f9e14
Настройки программы : cabac=1 / ref=12 / deblock=1:-3:-3 / analyse=0x3:0x133 / me=umh / subme=10 / psy=1 / psy_rd=1.05:0.12 / mixed_ref=1 / me_range=32 / chroma_me=1 / trellis=2 / 8x8dct=1 / cqm=0 / deadzone=21,11 / fast_pskip=0 / chroma_qp_offset=-3 / threads=6 / lookahead_threads=1 / sliced_threads=0 / nr=0 / decimate=0 / interlaced=0 / bluray_compat=0 / constrained_intra=0 / bframes=10 / b_pyramid=2 / b_adapt=2 / b_bias=0 / direct=3 / weightb=1 / open_gop=0 / weightp=2 / keyint=240 / keyint_min=24 / scenecut=40 / intra_refresh=0 / rc=2pass / mbtree=0 / bitrate=1198 / ratetol=1.0 / qcomp=0.60 / qpmin=0 / qpmax=69 / qpstep=4 / cplxblur=20.0 / qblur=0.5 / ip_ratio=1.40 / pb_ratio=1.30 / aq=3:1.00
Default : Да
Forced : Нет
Цветовой диапазон : Limited
Основные цвета : BT.709
Характеристики трансфера : BT.709
Коэффициенты матрицы : BT.709

Аудио
Идентификатор : 2
Формат : AAC LC SBR
Формат/Информация : Advanced Audio Codec Low Complexity with Spectral Band Replication
Коммерческое название : HE-AAC
Настройки формата : Explicit
Идентификатор кодека : A_AAC-2
Продолжительность : 1 ч. 21 м.
Битрейт : 76,0 Кбит/сек
Каналы : 2 канала
Channel layout : L R
Частота : 48,0 КГц
Частота кадров : 23,438 кадра/сек (2048 SPF)
Метод сжатия : С потерями
Задержка видео : 31 мс.
Размер потока : 44,4 Мбайт (6%)
Язык : Russian
Default : Да
Forced : Нет

Меню
00:00:00.000 : ru:Глава 01
00:02:59.875 : ru:Глава 02
00:08:27.583 : ru:Глава 03
00:13:29.042 : ru:Глава 04
00:19:43.167 : ru:Глава 05
00:24:43.917 : ru:Глава 06
00:29:47.167 : ru:Глава 07
00:36:36.375 : ru:Глава 08
00:42:06.875 : ru:Глава 09
00:47:30.083 : ru:Глава 10
00:52:24.042 : ru:Глава 11
00:57:09.750 : ru:Глава 12
01:02:25.500 : ru:Глава 13
01:05:27.667 : ru:Глава 14
01:12:57.708 : ru:Глава 15
01:18:21.375 : ru:Глава 16



Скриншоты:
[+] Всего файлов в раздаче - 1:
Vernost 2019 HDRip-AVC.ExKinoRay.mkv745.92 MB

Показать еще раздачи по запросу верность:
2020-07-28 U Верность (2019) BDRip-AVC от Files-x | GER Transfer | Лицензия 1.46 GB ↑ 38 ↓ 11
2020-07-27 U Верность (2019) BDRip от Twister & ExKinoRay | GER Transfer | Лицензия 1.46 GB ↑ 27 ↓ 7
2020-07-27 U Верность (2019) BDRip 1080p от OlLanDGroup | GER Transfer | Лицензия 7.10 GB ↑ 28 ↓ 13
2020-07-25 U Верность (2019) BDRemux 1080p | GER Transfer | Лицензия 21.83 GB ↑ 28 ↓ 15
2020-07-24 U Верность (2019) HDRip от Portablius | GER Transfer | Лицензия 740.79 MB ↑ 76 ↓ 13
2020-07-24 U Верность (2019) BDRip от MegaPeer | GER Transfer | Лицензия 1.46 GB ↑ 111 ↓ 35
2020-07-24 U Верность (2019) BDRip 720p от ExKinoRay | GER Transfer | Лицензия 3.95 GB ↑ 167 ↓ 63

Отзывы
Зарегистрируйтесь чтобы добавить комментарий.
Обратная связь
Copyleft ©