↑↓torrent.by
Поиск
Логин: Регистрация
Пароль: Восстановить пароль

Белый клык / Croc-Blanc (2018) BDRip 720p от SuperMin | Sub

Скачать belyy-klyk-croc-blanc-2018-bdrip-720p-ot-supermin-sub.torrent
U Магнитная ссылка Размер: 1.41 GB Раздают: 41 Качают: 9 Добавлен: 2020-07-25 05:16:13
Белый клык / Croc-Blanc (2018) BDRip 720p от SuperMin | Sub

Название: Белый клык
Оригинальное название: Croc-Blanc
Год выхода: 2018
Жанр: Мультфильм, приключения
Режиссер: Александр Эспигарес
В ролях: Ник Офферман, Рашида Джонс, Пол Джаматти, Флула Борг, Стив Гликман, Доминик Пинон, Виржини Эфира, Эдди Спирс, Рафаэль Персонас, Дэвид Боат

Родители Белого Клыка - домашняя собака по имени Кичи и дикий волк. Проведя детство в заснеженных пустошах дальнего севера, он попадает в руки индейца по имени Серый Бобр, который когда то был хозяином Кичи. Однажды подпоив Серого Бобра, жестокий и коварный Красавчик Смит покупает у него Белого Клыка и тогда жизнь животного превращается в ад, что сильно ожесточает Белого Клыка. Спасает его молодой человек по имени Уидон Скотт. Доброта Уидона заставляет Белого Клыка учиться сдерживать свои дикие инстинкты и стараться стать окружающим другом.

Страна: Франция, Люксембург, США
Студия: B Media Kids, Backup Films, Bidibul Productions
Продолжительность: 01:27:46
Перевод: Субтитры

Файл
Кодек: H.264
Качество: BDRip 720p
Видео: 1280х536 (2.40:1), 1843 Kbps, 23.976 fps
Звук: Английский (AC-3, 6ch, 448 kbps)
Субтитры: Русские, английские


[+] MI
x264 [info]: frame I:1024  Avg QP:14.82  size: 90813
x264 [info]: frame P:33080 Avg QP:16.76  size: 20330
x264 [info]: frame B:92153 Avg QP:19.88  size:  4858
x264 [info]: consecutive B-frames:  5.1%  5.5% 10.6% 25.5% 21.5% 24.4%  3.0%  2.1%  0.5%  0.4%  1.3%

General
Unique ID                   : 293474772380002813424790922584875703810 (0xDCC92F69966718430DEE6B5866199E02)
Complete name               : F:ФИЛЬМЫРУТОРБелый клык (2018).BDRip 720p.mkv
Format                      : Matroska
Format version              : Version 4
File size                   : 1.41 GiB
Duration                    : 1 h 27 min
Overall bit rate            : 2 293 kb/s
Movie name                  : Белый клык / White Fang (2018) - #LORDKILL#
Encoded date                : UTC 2020-07-23 17:26:28
Writing application         : mkvmerge v32.0.0 ('Astral Progressions') 64-bit
Writing library             : libebml v1.3.7 + libmatroska v1.5.0
Cover                       : Yes
Attachments                 : cover.jpg

Video
ID                          : 1
Format                      : AVC
Format/Info                 : Advanced Video Codec
Format profile              : High@L4.1
Format settings             : CABAC / 12 Ref Frames
Format settings, CABAC      : Yes
Format settings, Reference  : 12 frames
Codec ID                    : V_MPEG4/ISO/AVC
Duration                    : 1 h 27 min
Bit rate                    : 1 843 kb/s
Width                       : 1 280 pixels
Height                      : 536 pixels
Display aspect ratio        : 2.40:1
Frame rate mode             : Constant
Frame rate                  : 23.976 (24000/1001) FPS
Color space                 : YUV
Chroma subsampling          : 4:2:0
Bit depth                   : 8 bits
Scan type                   : Progressive
Bits/(Pixel*Frame)          : 0.112
Stream size                 : 1.13 GiB (80%)
Writing library             : x264 core 159 r2991 1771b55
Encoding settings           : cabac=1 / ref=12 / deblock=1:-2:-2 / analyse=0x3:0x133 / me=umh / subme=10 / psy=1 / psy_rd=1.00:0.20 / mixed_ref=1 / me_range=32 / chroma_me=1 / trellis=2 / 8x8dct=1 / cqm=0 / deadzone=21,11 / fast_pskip=0 / chroma_qp_offset=-3 / threads=12 / lookahead_threads=3 / sliced_threads=0 / nr=0 / decimate=1 / interlaced=0 / bluray_compat=0 / constrained_intra=0 / bframes=10 / b_pyramid=2 / b_adapt=2 / b_bias=0 / direct=1 / weightb=1 / open_gop=0 / weightp=2 / keyint=240 / keyint_min=23 / scenecut=40 / intra_refresh=0 / rc=crf / mbtree=0 / crf=19.0 / qcomp=0.60 / qpmin=0 / qpmax=69 / qpstep=4 / ip_ratio=1.40 / pb_ratio=1.30 / aq=1:1.00
Default                     : Yes
Forced                      : No

Audio
ID                          : 2
Format                      : AC-3
Format/Info                 : Audio Coding 3
Commercial name             : Dolby Digital
Codec ID                    : A_AC3
Duration                    : 1 h 27 min
Bit rate mode               : Constant
Bit rate                    : 448 kb/s
Channel(s)                  : 6 channels
Channel layout              : L R C LFE Ls Rs
Sampling rate               : 48.0 kHz
Frame rate                  : 31.250 FPS (1536 SPF)
Compression mode            : Lossy
Stream size                 : 281 MiB (20%)
Language                    : English
Service kind                : Complete Main
Default                     : Yes
Forced                      : No

Text #1
ID                          : 3
Format                      : UTF-8
Codec ID                    : S_TEXT/UTF8
Codec ID/Info               : UTF-8 Plain Text
Duration                    : 1 h 23 min
Bit rate                    : 43 b/s
Count of elements           : 545
Stream size                 : 26.6 KiB (0%)
Language                    : Russian
Default                     : Yes
Forced                      : No

Text #2
ID                          : 4
Format                      : UTF-8
Codec ID                    : S_TEXT/UTF8
Codec ID/Info               : UTF-8 Plain Text
Duration                    : 1 h 24 min
Bit rate                    : 35 b/s
Count of elements           : 859
Stream size                 : 22.2 KiB (0%)
Language                    : English
Default                     : No
Forced                      : No

Menu
00:00:00.000                : en:Chapter 01
00:07:10.012                : en:Chapter 02
00:12:06.517                : en:Chapter 03
00:17:42.311                : en:Chapter 04
00:25:37.494                : en:Chapter 05
00:32:51.260                : en:Chapter 06
00:39:27.323                : en:Chapter 07
00:47:48.782                : en:Chapter 08
00:57:23.731                : en:Chapter 09
01:03:24.300                : en:Chapter 10
01:14:20.998                : en:Chapter 11
01:23:45.061                : en:Chapter 12



Скриншоты:
[+] Всего файлов в раздаче - 1:
Белый клык (2018).BDRip 720p.mkv1.41 GB

Похожие раздачи по запросу - белый:
2019-09-30 U Белый лебедь / Sonja: The White Swan (2018) HDRip | iTunes 1.46 GB ↑ 317 ↓ 24
2019-04-04 U Белый парень Рик / White Boy Rick (2018) BDRip от MegaPeer | Лицензия 1.46 GB ↑ 940 ↓ 60
2018-09-01 U Белый клык / Croc-Blanc / White Fang (2018) WEBRip | L1 1.25 GB ↑ 388 ↓ 54

Отзывы
Зарегистрируйтесь чтобы добавить комментарий.
Обратная связь
Copyleft ©