↑↓torrent.by
Поиск
Логин: Регистрация
Пароль: Восстановить пароль

Ключи от рая (1975) TeleCine 1080p

Скачать klyuchi-ot-raya-1975-telecine-1080p.torrent
U Магнитная ссылка Размер: 5.90 GB Раздают: 21 Качают: 11 Добавлен: 2020-07-26 05:26:30
Ключи от рая (1975) TeleCine 1080p

Название: Ключи от рая
Год выпуска: 1975
Страна: СССР
Жанр:  Детектив
Продолжительность: 01:31:49

Режиссер: Алоиз Бренч

В ролях: Улдис Пуцитис, Владимир Осенев, Улдис Думпис, Елена Козелькова, Карл Тренцис, Бронюс Бабкаускас, Л. Зелчус, Янис Мелдерис, Волдемар Зандберг, Харий Лиепиньш, Я. Целм, Мара Звайгзне, Волдемар Лобиньш, Дзидра Ритенберг, Освальд Кубланов.

Описание: Второй фильм дилогии, начатой фильмом «Свет в конце тоннеля». Капитан милиции Крастыньш, проявляя мужество и находчивость, а также знание психологии людей, делает безошибочные выводы из запутанного клубка фактов - уверенно разоблачает торговцев золотом.

Качество: TeleCine 1080p
Формат: MKV
Видео кодек: x264
Аудио кодек: AC3
Видео: MPEG4 Video (H264), 1920x816, 24fps, 9000 kbps
Аудио: Dolby AC3, 48000 Hz, 2ch, 192 kbps


[+] MediaInfo:
General
Unique ID                   : 187320038641314843866548201309139851387 (0x8CEC86F3FA5BA05FBCE7A26DE3D7587B)
Complete name               : E:Torrent21975.Ключи.от.рая.likko.mkv
Format                      : Matroska
Format version              : Version 4
File size                   : 5.90 GiB
Duration                    : 1 h 31 min
Overall bit rate            : 9 194 kb/s
Movie name                  : 1975 Ключи от рая/likko
Encoded date                : UTC 2020-07-25 14:19:24
Writing application         : mkvmerge v8.3.0 ('Over the Horizon') 64bit
Writing library             : libebml v1.3.1 + libmatroska v1.4.2

Video
ID                          : 1
Format                      : AVC
Format/Info                 : Advanced Video Codec
Format profile              : High@L4.1
Format settings             : CABAC / 5 Ref Frames
Format settings, CABAC      : Yes
Format settings, Reference  : 5 frames
Codec ID                    : V_MPEG4/ISO/AVC
Duration                    : 1 h 31 min
Bit rate                    : 9 000 kb/s
Width                       : 1 920 pixels
Height                      : 816 pixels
Display aspect ratio        : 2.35:1
Frame rate mode             : Constant
Frame rate                  : 24.000 FPS
Color space                 : YUV
Chroma subsampling          : 4:2:0
Bit depth                   : 8 bits
Scan type                   : Progressive
Bits/(Pixel*Frame)          : 0.239
Stream size                 : 5.77 GiB (98%)
Title                       : 1975 Ключи от рая
Writing library             : x264 core 148 r2638 7599210
Encoding settings           : cabac=1 / ref=5 / deblock=1:-1:-1 / analyse=0x3:0x133 / me=umh / subme=11 / psy=1 / psy_rd=1.00:0.15 / mixed_ref=1 / me_range=64 / chroma_me=1 / trellis=2 / 8x8dct=1 / cqm=0 / deadzone=21,11 / fast_pskip=0 / chroma_qp_offset=-3 / threads=18 / lookahead_threads=3 / sliced_threads=0 / nr=0 / decimate=1 / interlaced=0 / bluray_compat=0 / constrained_intra=0 / bframes=8 / b_pyramid=2 / b_adapt=2 / b_bias=0 / direct=3 / weightb=1 / open_gop=0 / weightp=2 / keyint=250 / keyint_min=23 / scenecut=40 / intra_refresh=0 / rc=2pass / mbtree=0 / bitrate=9000 / ratetol=1.0 / qcomp=0.60 / qpmin=0 / qpmax=69 / qpstep=4 / cplxblur=20.0 / qblur=0.5 / ip_ratio=1.40 / pb_ratio=1.30 / aq=2:1.00
Language                    : Russian
Default                     : Yes
Forced                      : No

Audio
ID                          : 2
Format                      : AC-3
Format/Info                 : Audio Coding 3
Commercial name             : Dolby Digital
Codec ID                    : A_AC3
Duration                    : 1 h 31 min
Bit rate mode               : Constant
Bit rate                    : 192 kb/s
Channel(s)                  : 2 channels
Channel layout              : L R
Sampling rate               : 48.0 kHz
Frame rate                  : 31.250 FPS (1536 SPF)
Compression mode            : Lossy
Stream size                 : 126 MiB (2%)
Language                    : Russian
Service kind                : Complete Main
Default                     : Yes
Forced                      : No

Menu
00:00:00.000                : en:Chapter 01
00:10:05.229                : en:Chapter 02
00:20:15.756                : en:Chapter 03
00:30:15.146                : en:Chapter 04
00:40:38.644                : en:Chapter 05
00:50:54.176                : en:Chapter 06
01:00:54.150                : en:Chapter 07
01:11:18.440                : en:Chapter 08
01:19:15.330                : en:Chapter 09
01:25:19.230                : en:Chapter 10
01:30:09.230                : en:Chapter 11




Скриншоты:
[+] Всего файлов в раздаче - 1:
1975.Ключи.от.рая.likko.mkv5.90 GB

Похожие раздачи по запросу - ключи:
2018-08-26 U Ключи для ESET NOD32, Kaspersky, Avast, Dr.Web, Avira [от 25 августа] (2018) PC 2.87 MB ↑ 274 ↓ 69

Отзывы
Зарегистрируйтесь чтобы добавить комментарий.
Обратная связь
Copyleft ©