↑↓torrent.by
Поиск
Логин: Регистрация
Пароль: Восстановить пароль

Торжественный парад ко Дню Военно-морского флота РФ. Санкт-Петербург (2020) HDTV 1080i от GeneralFilm

Скачать torzhestvennyy-parad-ko-dnyu-voenno-morskogo-flota-rf-sankt-peterburg-2020-hdtv-1080i-ot-generalfilm.torrent
U Магнитная ссылка Размер: 4.60 GB Раздают: 76 Качают: 35 Добавлен: 2020-07-26 19:38:29
Торжественный парад ко Дню Военно-морского флота РФ. Санкт-Петербург (2020) HDTV 1080i от GeneralFilm

Оригинальное название: Торжественный парад к Дню Военно-морского флота РФ
Год выпуска: 2020
Жанр:  Документальный, военный парад
Выпущено: Россия, 1 (HD)

О фильме: В военно-морском параде в Санкт-Петербурге 26 июля 2020 года будет задействовано 46 боевых кораблей и подводных лодок всех флотов, в том числе, самые современные из поступающих сегодня на вооружение. Среди них — первый серийный фрегат «Адмирал флота Касатонов», морской тральщик «Александр Обухов», подводная лодка «Санкт-Петербург» и другие. По Неве пройдут боевые катера со знаменами прославленных соединений ВМФ, а на десантных катерах будут размещены легендарные машины Победы — танк Т-34 и БМ-13 «Катюша». Вместе с боевыми кораблями по Неве пройдут два новейших гидрографических судна. В воздушной части парада будет задействовано более 40 единиц авиационной техники.

Качество: HDTV (1080i)
Видео: MPEG-TS AVC, 7930 Кбит/с, 1920x1080, 25 кадр/сек
Аудио: Русский (AC3, 2 ch, 384 Кбит/с, MP2, 2 ch, 192 Кбит/с)
Продолжительность: 01:13:37
Перевод: Не требуется
Субтитры: нет

Релиз:
[+] MediaInfo

Общее
Идентификатор                            : 1 (0x1)
Полное имя                               : D:ЗаписьTorzhestvennyj parad k Dnju Voenno-morskogo flota RF.(Sankt-Peterburg).(2020).HDTV(1080i).GeneralFilm.ts
Формат                                   : MPEG-TS
Размер файла                             : 4,60 Гбайт
Продолжительность                        : 1 ч. 13 м.
Режим общего битрейта                    : Переменный
Общий поток                              : 8954 Кбит/сек

Видео
Идентификатор                            : 1904 (0x770)
Идентификатор меню                       : 80 (0x50)
Формат                                   : AVC
Формат/Информация                        : Advanced Video Codec
Профиль формата                          : High@L4.0
Параметр CABAC формата                   : Да
Параметр ReFrames формата                : 3 кадра
Параметр GOP формата                     : M=4, N=32
Идентификатор кодека                     : 27
Продолжительность                        : 1 ч. 13 м.
Битрейт                                  : 7930 Кбит/сек
Ширина                                   : 1920 пикселей
Высота                                   : 1080 пикселей
Соотношение сторон                       : 16:9
Частота кадров                           : 25,000 кадров/сек
Стандарт вещания                         : Component
Цветовое пространство                    : YUV
Субдискретизация насыщенности            : 4:2:0
Битовая глубина                          : 8 бит
Тип развёртки                            : Чересстрочная
Порядок развёртки                        : Верхнее поле первое
Бит/(Пиксели*Кадры)                      : 0.153
Размер потока                            : 4,08 Гбайт (89%)
Основные цвета                           : BT.709
Характеристики трансфера                 : BT.709
Коэффициенты матрицы                     : BT.709

Аудио #1
Идентификатор                            : 2904 (0xB58)
Идентификатор меню                       : 80 (0x50)
Формат                                   : AC-3
Формат/Информация                        : Audio Coding 3
Расширение режима                        : CM (complete main)
Параметр Endianness формата              : Big
Идентификатор кодека                     : 6
Продолжительность                        : 1 ч. 13 м.
Вид битрейта                             : Постоянный
Битрейт                                  : 384 Кбит/сек
Каналы                                   : 6 каналов
Расположение каналов                     : Front: L C R, Side: L R, LFE
Частота                                  : 48,0 КГц
Битовая глубина                          : 16 бит
Метод сжатия                             : С потерями
Задержка видео                           : -40 мс.
Размер потока                            : 202 Мбайт (4%)
Язык                                     : Russian

Аудио #2
Идентификатор                            : 2905 (0xB59)
Идентификатор меню                       : 80 (0x50)
Формат                                   : MPEG Audio
Версия формата                           : Version 1
Профиль формата                          : Layer 2
Идентификатор кодека                     : 3
Продолжительность                        : 1 ч. 13 м.
Вид битрейта                             : Постоянный
Битрейт                                  : 192 Кбит/сек
Каналы                                   : 2 канала
Частота                                  : 48,0 КГц
Метод сжатия                             : С потерями
Задержка видео                           : -40 мс.
Размер потока                            : 101 Мбайт (2%)
Язык                                     : Russian




Скриншоты:
[+] Всего файлов в раздаче - 1:
Torzhestvennyj parad k Dnju Voenno-morskogo flota RF.(Sankt-Peterburg).(2020).HDTV(1080i).GeneralFilm.ts4.60 GB

Похожие раздачи по запросу - торжественный:
2020-07-26 U Торжественный парад ко Дню Военно-морского флота РФ. Санкт-Петербург (2020) HDTVRip от GeneralFilm 1.03 GB ↑ 141 ↓ 20

Отзывы
375257344431
Огромное спасибо! Оперативно!

Зарегистрируйтесь чтобы добавить комментарий.
Обратная связь
Copyleft ©