↑↓torrent.by
Поиск
Логин: Регистрация
Пароль: Восстановить пароль

Хитрая память / Искажение памяти / Tricky Memory (2016) HDTVRip 720p | P2

Скачать hitraya-pamyat-iskazhenie-pamyati-tricky-memory-2016-hdtvrip-720p-p2.torrent
U Магнитная ссылка Размер: 1.62 GB Раздают: 39 Качают: 6 Добавлен: 2020-07-27 06:12:10
Хитрая память / Искажение памяти / Tricky Memory (2016) HDTVRip 720p | P2

Название: Хитрая память / Искажение памяти
Оригинальное название: Tricky Memory
Год выхода: 2016
Жанр: Документальный, научно-популярный, исследования
Режиссер: Рафаэль Гитье

О фильме:
Насколько мы можем полагаться на нашу память? Этот документальный фильм рассказывает о новейших открытиях нейробиологии, объясняющих такие явления, как ложные воспоминания, дежавю и искажения памяти. Оказывается, наш мозг обманывает нас каждый день. А ученые научились управлять памятью и даже удалять воспоминания, а потом восстанавливать их по требованию.

Страна: Франция
Студия: Scientifilms, ARTE
Продолжительность: 00:52:56
Перевод: Профессиональный (двухголосый закадровый)

Файл
Кодек: AVC/H.264
Качество: HDTVRip 720p
Видео: 1280x720 (16:9), 25 fps, AVC (Н.264), High@L4,1, 4000 kbps avg, 0.174 bit/pixel
Звук:
Русский 48 kHz, AC3 Dolby Digital, 2/0 (L,R) ch, ~192.00 kbps avg 1ТВЧ
Русский 48 kHz, AC3 Dolby Digital, 2/0 (L,R) ch, ~192.00 kbps avg Видеофильм ТВ

Семпл

Релиз от: kyba
[+] MediaInfo
Complete name               : F:НаладкиНовая папкаИскажения памяти_720p.mkv
Format                      : Matroska
Format version              : Version 4
File size                   : 1.62 GiB
Duration                    : 52 min 56 s
Overall bit rate            : 4 385 kb/s
Encoded date                : UTC 2020-07-26 07:22:49
Writing application         : mkvmerge v6.6.0 ('The Edge Of The In Between') built on Dec  1 2013 17:55:00
Writing library             : libebml v1.3.0 + libmatroska v1.4.1

Video
ID                          : 1
Format                      : AVC
Format/Info                 : Advanced Video Codec
Format profile              : High@L4.1
Format settings             : CABAC / 9 Ref Frames
Format settings, CABAC      : Yes
Format settings, Reference  : 9 frames
Codec ID                    : V_MPEG4/ISO/AVC
Duration                    : 52 min 56 s
Bit rate                    : 4 000 kb/s
Width                       : 1 280 pixels
Height                      : 720 pixels
Display aspect ratio        : 16:9
Frame rate mode             : Constant
Frame rate                  : 25.000 FPS
Color space                 : YUV
Chroma subsampling          : 4:2:0
Bit depth                   : 8 bits
Scan type                   : Progressive
Bits/(Pixel*Frame)          : 0.174
Stream size                 : 1.45 GiB (89%)
Writing library             : x264 core 159 r2991 1771b55
Encoding settings           : cabac=1 / ref=9 / deblock=1:-3:-3 / analyse=0x3:0x133 / me=umh / subme=10 / psy=1 / psy_rd=1.00:0.00 / mixed_ref=1 / me_range=32 / chroma_me=1 / trellis=2 / 8x8dct=1 / cqm=0 / deadzone=21,11 / fast_pskip=1 / chroma_qp_offset=-2 / threads=12 / lookahead_threads=2 / sliced_threads=0 / nr=0 / decimate=0 / interlaced=0 / bluray_compat=0 / constrained_intra=0 / bframes=9 / b_pyramid=2 / b_adapt=2 / b_bias=0 / direct=3 / weightb=1 / open_gop=0 / weightp=2 / keyint=250 / keyint_min=25 / scenecut=40 / intra_refresh=0 / rc_lookahead=50 / rc=2pass / mbtree=1 / bitrate=4000 / ratetol=1.0 / qcomp=0.60 / qpmin=0 / qpmax=69 / qpstep=4 / cplxblur=20.0 / qblur=0.5 / ip_ratio=1.40 / aq=1:1.00
Language                    : English
Default                     : Yes
Forced                      : No

Audio #1
ID                          : 2
Format                      : AC-3
Format/Info                 : Audio Coding 3
Commercial name             : Dolby Digital
Codec ID                    : A_AC3
Duration                    : 52 min 56 s
Bit rate mode               : Constant
Bit rate                    : 192 kb/s
Channel(s)                  : 2 channels
Channel layout              : L R
Sampling rate               : 48.0 kHz
Frame rate                  : 31.250 FPS (1536 SPF)
Bit depth                   : 16 bits
Compression mode            : Lossy
Stream size                 : 72.7 MiB (4%)
Title                       : 1ТВЧ
Language                    : Russian
Service kind                : Complete Main
Default                     : Yes
Forced                      : Yes

Audio #2
ID                          : 3
Format                      : AC-3
Format/Info                 : Audio Coding 3
Commercial name             : Dolby Digital
Codec ID                    : A_AC3
Duration                    : 52 min 56 s
Bit rate mode               : Constant
Bit rate                    : 192 kb/s
Channel(s)                  : 2 channels
Channel layout              : L R
Sampling rate               : 48.0 kHz
Frame rate                  : 31.250 FPS (1536 SPF)
Bit depth                   : 16 bits
Compression mode            : Lossy
Stream size                 : 72.7 MiB (4%)
Title                       : Видеофильм ТВ
Language                    : Russian
Service kind                : Complete Main
Default                     : No
Forced                      : No



Скриншоты:
[+] Всего файлов в раздаче - 1:
Искажения памяти_720p.mkv1.62 GB

Отзывы
Зарегистрируйтесь чтобы добавить комментарий.
Обратная связь
Copyleft ©