↑↓torrent.by
Поиск
Логин: Регистрация
Пароль: Восстановить пароль

Макромиры / Macro Worlds [01-03 из 03] (2017) HDTV 1080i | P1

Скачать makromiry-macro-worlds-01-03-iz-2017-hdtv-1080i-p1.torrent
U Магнитная ссылка Размер: 7.67 GB Раздают: 40 Качают: 29 Добавлен: 2020-07-28 07:37:33
Макромиры / Macro Worlds [01-03 из 03] (2017) HDTV  1080i | P1

Название: Макромиры
Оригинальное название: Macro Worlds
Год выхода: 2017
Жанр: Документальный, природа, флора, фауна
Режиссер: Лотар Френц

О фильме:
Существует огромный мир крошечных существ, которых не так-то просто заметить… Откройте для себя удивительное многообразие насекомых и важную роль, которую они играют в экосистеме нашей планеты. Узнайте, как мелкие хищники влияют на их среду обитания и как эти отважные крошки готовятся к ежегодному концу света – зиме.

Страна: США
Студия: Taglicht Media, Blue ant Media
Продолжительность: 3 x ~ 00:46:01
Перевод: Профессиональный (одноголосый закадровый)

Файл
Кодек: AVC/H.264
Качество: HDTV  1080i
Видео: 1920x1080 (16:9), AVC (H.264), Main@L4, 7299 kbps, 25fps, 0.141 bit/pixel
Звук: Русский 48 kHz, MPEG Layer 2, 2 ch, ~192.00 kbps avg

Семпл

Релиз от: kyba
[+] MediaInfo
Complete name               : F:НаладкиМакромиры1. Зима наступает.ts
Format                      : MPEG-TS
File size                   : 2.53 GiB
Duration                    : 46 min 1 s
Overall bit rate mode       : Variable
Overall bit rate            : 7 882 kb/s

Video
ID                          : 3711 (0xE7F)
Menu ID                     : 37001 (0x9089)
Format                      : AVC
Format/Info                 : Advanced Video Codec
Format profile              : Main@L4
Format settings             : CABAC / 3 Ref Frames
Format settings, CABAC      : Yes
Format settings, Reference  : 3 frames
Format settings, GOP        : M=4, N=32
Codec ID                    : 27
Duration                    : 46 min 1 s
Bit rate                    : 7 299 kb/s
Width                       : 1 920 pixels
Height                      : 1 080 pixels
Display aspect ratio        : 16:9
Frame rate                  : 25.000 FPS
Color space                 : YUV
Chroma subsampling          : 4:2:0
Bit depth                   : 8 bits
Scan type                   : Interlaced
Scan type, store method     : Separated fields
Scan order                  : Top Field First
Bits/(Pixel*Frame)          : 0.141
Stream size                 : 2.35 GiB (93%)
Color range                 : Limited
Color primaries             : BT.709
Transfer characteristics    : BT.709
Matrix coefficients         : BT.709

Audio
ID                          : 3712 (0xE80)
Menu ID                     : 37001 (0x9089)
Format                      : MPEG Audio
Format version              : Version 1
Format profile              : Layer 2
Codec ID                    : 3
Duration                    : 46 min 1 s
Bit rate mode               : Constant
Bit rate                    : 192 kb/s
Channel(s)                  : 2 channels
Sampling rate               : 48.0 kHz
Frame rate                  : 41.667 FPS (1152 SPF)
Compression mode            : Lossy
Delay relative to video     : -80 ms
Stream size                 : 63.2 MiB (2%)
Language                    : Russian



[+] Содержание

01. Winter Is Coming / Зима наступает
Как только дни становятся холодными и темными, насекомые начинают исчезать с лугов и полей. Особые способы выживания животных зимой отмечены в премьерном сериале.
02. Meadow of Horror / Долина ужасов
Приготовьтесь к ужасному путешествию в мир хищных насекомых. Используя стилистические приемы, игриво извлеченные из жанра ужасов, отправляйтесь в увлекательное путешествие с известным героем-насекомым, у которого шесть ног, красные крылья и семь черных точек. Тихий луг действительно так безопасен, как кажется?
03. God's Darling: Beetles / Жуки: любимцы небес
Жуки обитали на земле более 240 миллионов лет. Четвертая часть животных в мире - это жуки, поскольку ученым известно около 380 000 видов жуков, и каждый год обнаруживаются сотни новых видов.



Скриншоты:
[+] Всего файлов в раздаче - 3:
01. Зима наступает.ts2.53 GB
02. Долина ужасов.ts2.48 GB
03. Жуки_любимцы небес.ts2.66 GB

Отзывы
Зарегистрируйтесь чтобы добавить комментарий.
Обратная связь
Copyleft ©