↑↓torrent.by
Поиск
Логин: Регистрация
Пароль: Восстановить пароль

Берегись автомобиля (1966) BDRip 1080p от New-Team | В цвете

Скачать beregis-avtomobilya-1966-bdrip-1080p-ot-new-team-v-cvete.torrent
U Магнитная ссылка Размер: 4.36 GB Раздают: 51 Качают: 16 Добавлен: 2020-07-29 07:41:31
Берегись автомобиля (1966) BDRip 1080p от New-Team | В цвете

Год выпуска: 1966
Страна: СССР
Студии: Мосфильм

Жанр:  мелодрама, комедия, криминал
Продолжительность: 01:34:08
Субтитры: нет

Режиссер: Эльдар Рязанов

В ролях:
Иннокентий Смоктуновский, Олег Ефремов, Любовь Добржанская, Ольга Аросева, Андрей Миронов, Татьяна Гаврилова, Анатолий Папанов, Георгий Жжёнов, Евгений Евстигнеев, Сергей Кулагин, Виктория Радунская...
Полный список актёров

Описание:
Эта удивительная история вполне может считаться фантастической. Скромный и застенчивый страховой агент, актер самодеятельного театра Юрий Деточкин оказывается непримиримым борцом за справедливость. Правда, для правосудия, представляемого актером того же театра, а в миру — следователем Подберезовиковым, этот Робин Гуд представляется опасным, хитроумным, изобретательным и неуловимым преступником…

[url=http://www.imdb.com/title/tt0060161/" target="_blank">


[+] Это интересно

Знаете ли Вы что:
Первоначально на роль Деточкина планировался Юрий Никулин, но он вместе с цирком отправился на гастроли в Южную Африку почти на полгода. В результате на роль Деточкина пробовался Олег Ефремов, но в итоге ее отдали Иннокентию Смоктуновскому, а Ефремов сыграл роль Максима Подберезовикова. На роль Деточкина также пробовались Леонид Куравлёв, Леонид Быков, Василий Лановой, Александр Белявский, Михаил Державин.
Мосфильмовская «Волга» ГАЗ-21, на которой Деточкин ушел от погони, впоследствии стала знаменитым «такси на Дубровку» Папанова (только перекрашенным) в фильме «Бриллиантовая рука» (1968) и машиной-такси героя Ефремова в фильме ««Три тополя» на Плющихе» (1967).
Вальс, звучащий во время погони милиционера за Деточкиным, использует музыкальную фразу из песни «Padam... Padam...». Эта мелодия композитора Андрея Петрова одна из наиболее известных и узнаваемых в мире музыки кино. В репертуаре Сергея Никитина есть песня «Стеклянный Господин» (на стихи Евгения Евтушенко) использующая мотив вальса из фильма «Берегись автомобиля».
В этом фильме Деточкин (Смоктуновский) играет Гамлета в самодеятельности. Примечательно, что Иннокентий Смоктуновский к тому времени уже блестяще сыграл Гамлета в одноименном фильме. Постановка театра самодеятельности использует другой перевод пьесы, М. Лозинского, а не Б. Пастернака.
В эпизоде, где «Волга» Деточкина во время погони задним ходом выезжает с крутой обочины на дорогу, если приглядеться, заметен трос, который вытягивает машину.
В сцене погони Деточкин на большой скорости справа объезжает препятствия в виде стоящего на дороге грузовика (возле него никого нет) и движущегося навстречу автобуса. В следующий миг видно, что грузовик стоит на обочине, а водитель накачивает колесо.
Когда происходит беседа Деточкина с милиционером и тот жалуется на плохой аккумулятор, бордюры то покрашены «в зебру», то нет.
В начале фильма закадровый голос автора утверждает, что не известно в каком городе происходят события. Однако, в сцене беседы в пивбаре, Деточкин произносит фразу о том, что после продажи одной из угнанных машин, он вернулся в... Москву. Следовательно, события фильма разворачиваются в Москве.
Мамой Деточкина в фильме хотели стать актрисы Зелёная и Мансурова, но наиболее убедительная проба получилась у Любови Добржанской.
Специально для съёмок Смоктуновский по настоянию режиссёра сдал на водительские права.
На роль Подберёзовикова пробовались Пётр Щербаков, Алексей Эйбоженко, Олег Борисов, Юрий Яковлев (впоследствий он остался в картине, как «голос за кадром»).
На роль Димы Семицветова пробовались Юрий Белов и Владимир Балон.



[+] MediaInfo

Общее
Полное имя                               : Beregis.avtomobilya.1966.BDRip-1080p_[New-team]_by_AVP_Studio.mkv
Формат                                   : Matroska
Версия формата                           : Version 2
Размер файла                             : 4,36 Гбайт
Продолжительность                        : 1 ч. 34 м.
Общий поток                              : 6638 Кбит/сек
Дата кодирования                         : UTC 2018-11-06 23:46:18
Программа кодирования                    : mkvmerge v6.1.0 ('Old Devil') built on Mar  4 2013 09:10:42
Библиотека кодирования                   : libebml v1.3.0 + libmatroska v1.4.0

Видео
Идентификатор                            : 1
Формат                                   : AVC
Формат/Информация                        : Advanced Video Codec
Профиль формата                          : High@L4.1
Настройки формата                        : CABAC / 4 Ref Frames
Параметр CABAC формата                   : Да
Параметр RefFrames формата               : 4 кадра
Идентификатор кодека                     : V_MPEG4/ISO/AVC
Продолжительность                        : 1 ч. 34 м.
Битрейт                                  : 6190 Кбит/сек
Ширина                                   : 1480 пикселей
Высота                                   : 1080 пикселей
Соотношение сторон                       : 1,370
Режим частоты кадров                     : Постоянный
Частота кадров                           : 23,976 (24000/1001) кадра/сек
Цветовое пространство                    : YUV
Субдискретизация насыщенности            : 4:2:0
Битовая глубина                          : 8 бит
Тип развёртки                            : Прогрессивная
Бит/(Пиксели*Кадры)                      : 0.162
Размер потока                            : 3,98 Гбайт (91%)
Библиотека кодирования                   : x264 core 157 r2932 303c484
Настройки программы                      : cabac=1 / ref=4 / deblock=1:-3:-3 / analyse=0x3:0x113 / me=umh / subme=10 / psy=1 / psy_rd=1.00:0.00 / mixed_ref=1 / me_range=32 / chroma_me=1 / trellis=2 / 8x8dct=1 / cqm=0 / deadzone=21,11 / fast_pskip=1 / chroma_qp_offset=-2 / threads=6 / lookahead_threads=1 / sliced_threads=0 / nr=0 / decimate=0 / interlaced=0 / bluray_compat=0 / constrained_intra=0 / bframes=8 / b_pyramid=2 / b_adapt=2 / b_bias=0 / direct=3 / weightb=1 / open_gop=0 / weightp=2 / keyint=240 / keyint_min=24 / scenecut=40 / intra_refresh=0 / rc=2pass / mbtree=0 / bitrate=6190 / ratetol=1.0 / qcomp=0.60 / qpmin=0 / qpmax=69 / qpstep=4 / cplxblur=20.0 / qblur=0.5 / ip_ratio=1.40 / pb_ratio=1.30 / aq=1:1.00
Default                                  : Да
Forced                                   : Нет

Аудио
Идентификатор                            : 2
Формат                                   : AC-3
Формат/Информация                        : Audio Coding 3
Коммерческое название                    : Dolby Digital
Идентификатор кодека                     : A_AC3
Продолжительность                        : 1 ч. 34 м.
Вид битрейта                             : Постоянный
Битрейт                                  : 448 Кбит/сек
Каналы                                   : 6 каналов
Channel layout                           : L R C LFE Ls Rs
Частота                                  : 48,0 КГц
Частота кадров                           : 31,250 кадров/сек (1536 SPF)
Битовая глубина                          : 16 бит
Метод сжатия                             : С потерями
Размер потока                            : 302 Мбайт (7%)
Default                                  : Да
Forced                                   : Нет



Скриншоты:
[+] Всего файлов в раздаче - 1:
Beregis.avtomobilya.1966.BDRip-1080p_[New-team]_by_AVP_Studio.mkv4.36 GB

Похожие раздачи по запросу - берегись:
2020-07-17 U Берегись автомобиля (1966) BDRip-HEVC 1080p от ADVOKAT69 | В цвете 2.83 GB ↑ 137 ↓ 29

Отзывы
Зарегистрируйтесь чтобы добавить комментарий.
Обратная связь
Copyleft ©