↑↓torrent.by
Поиск
Логин: Регистрация
Пароль: Восстановить пароль

Связь / Coherence (2013) BDRip 720p | iTunes

Скачать svyaz-coherence-2013-bdrip-720p-itunes.torrent
U Магнитная ссылка Размер: 4.04 GB Раздают: 123 Качают: 32 Добавлен: 2020-08-01 08:43:57
Связь / Coherence (2013) BDRip 720p | iTunes

Название: Связь
Оригинальное название: Coherence
Год выхода: 2013
Жанр: Ужасы, фантастика, триллер, драма, детектив
Страна: США, Великобритания
Перевод: Профессиональный (многоголосый закадровый) | iTunes
Продолжительность: 01:28:06
Режиссер: Джеймс Уорд Биркит
В ролях: Эмили Бальдони, Мори Стерлинг, Николас Брендон, Лорин Скафария, Элизабет Грэйсен, Хьюго Армстронг, Алекс Манугян, Лорен Мехер, Акилла Золл, Кэрри Паттерсон и др.

О фильме: В ночь падения кометы на званом ужине собираются восемь друзей. Наслаждаясь общением, они даже не подозревают о грядущих изменениях и во время непринужденной беседы становятся участниками цепи странных и загадочных событий. Игры с прошлым, настоящим и будущим.

Файл
Качество: BDRip 720p | Coherence 2013 1080p Blu-ray Remux AVC DTS-HD MA 5.1 - KRaLiMaRKo
Видео: x264, 1280x546, 5739 kbps, 23,976 fps
Звук#1: русский, AC3, 5.1 ch, 48 kHz, 384 kbps | iTunes
Звук#2: английский, AC3, 5.1 ch, 48 kHz, 448 kbps | оригинал
Субтитры: русские (полные (Janetta, Beliar)), английские (полные)

Рип и релиз от:


[+] MI
Общее
Уникальный идентификатор                 : 204186428959836193234122158658792510689 (0x999CE032EDFC9260A3C746DCDB98D4E1)
Полное имя                               : E:Torrent4SvyazBDRip720p.mkv
Формат                                   : Matroska
Версия формата                           : Version 4 / Version 2
Размер файла                             : 4,04 Гбайт
Продолжительность                        : 1 ч. 28 м.
Общий поток                              : 6572 Кбит/сек
Дата кодирования                         : UTC 2020-07-30 16:47:51
Программа кодирования                    : mkvmerge v9.5.0 ('Quiet Fire') 64bit
Библиотека кодирования                   : libebml v1.3.4 + libmatroska v1.4.5

Видео
Идентификатор                            : 1
Формат                                   : AVC
Формат/Информация                        : Advanced Video Codec
Профиль формата                          : High@L4.1
Настройки формата                        : CABAC / 11 Ref Frames
Параметр CABAC формата                   : Да
Параметр RefFrames формата               : 11 кадров
Идентификатор кодека                     : V_MPEG4/ISO/AVC
Продолжительность                        : 1 ч. 28 м.
Битрейт                                  : 5739 Кбит/сек
Ширина                                   : 1280 пикселей
Высота                                   : 546 пикселей
Соотношение сторон                       : 2,35:1
Режим частоты кадров                     : Постоянный
Частота кадров                           : 23,976 (23976/1000) кадра/сек
Цветовое пространство                    : YUV
Субдискретизация насыщенности            : 4:2:0
Битовая глубина                          : 8 бит
Тип развёртки                            : Прогрессивная
Бит/(Пиксели*Кадры)                      : 0.342
Размер потока                            : 3,53 Гбайт (87%)
Заголовок                                : Sisendrovich(R)
Библиотека кодирования                   : x264 core 159 r2991 1771b55
Настройки программы                      : cabac=1 / ref=11 / deblock=1:-1:-1 / analyse=0x3:0x133 / me=tesa / subme=11 / psy=1 / psy_rd=1.00:0.00 / mixed_ref=1 / me_range=32 / chroma_me=1 / trellis=2 / 8x8dct=1 / cqm=0 / deadzone=21,11 / fast_pskip=0 / chroma_qp_offset=-2 / threads=17 / lookahead_threads=4 / sliced_threads=0 / nr=0 / decimate=0 / interlaced=0 / bluray_compat=0 / constrained_intra=0 / bframes=12 / b_pyramid=2 / b_adapt=2 / b_bias=0 / direct=3 / weightb=1 / open_gop=0 / weightp=2 / keyint=240 / keyint_min=23 / scenecut=40 / intra_refresh=0 / rc_lookahead=60 / rc=2pass / mbtree=0 / bitrate=5739 / ratetol=1.0 / qcomp=0.70 / qpmin=0 / qpmax=69 / qpstep=4 / cplxblur=20.0 / qblur=0.5 / vbv_maxrate=50000 / vbv_bufsize=62500 / nal_hrd=none / filler=0 / ip_ratio=1.40 / pb_ratio=1.30 / aq=3:0.90
Язык                                     : English
Default                                  : Да
Forced                                   : Нет

Аудио #1
Идентификатор                            : 2
Формат                                   : AC-3
Формат/Информация                        : Audio Coding 3
Параметр Endianness формата              : Big
Идентификатор кодека                     : A_AC3
Продолжительность                        : 1 ч. 27 м.
Вид битрейта                             : Постоянный
Битрейт                                  : 384 Кбит/сек
Каналы                                   : 6 каналов
Расположение каналов                     : Front: L C R, Side: L R, LFE
Частота                                  : 48,0 КГц
Частота кадров                           : 31,250 кадров/сек (1536 SPF)
Битовая глубина                          : 16 бит
Метод сжатия                             : С потерями
Размер потока                            : 242 Мбайт (6%)
Заголовок                                : rus
Язык                                     : Russian
Default                                  : Да
Forced                                   : Нет

Аудио #2
Идентификатор                            : 3
Формат                                   : AC-3
Формат/Информация                        : Audio Coding 3
Параметр Endianness формата              : Big
Идентификатор кодека                     : A_AC3
Продолжительность                        : 1 ч. 27 м.
Вид битрейта                             : Постоянный
Битрейт                                  : 448 Кбит/сек
Каналы                                   : 6 каналов
Расположение каналов                     : Front: L C R, Side: L R, LFE
Частота                                  : 48,0 КГц
Частота кадров                           : 31,250 кадров/сек (1536 SPF)
Битовая глубина                          : 16 бит
Метод сжатия                             : С потерями
Размер потока                            : 282 Мбайт (7%)
Заголовок                                : eng
Язык                                     : English
Default                                  : Нет
Forced                                   : Нет

Текст #1
Идентификатор                            : 4
Формат                                   : UTF-8
Идентификатор кодека                     : S_TEXT/UTF8
Идентификатор кодека/Информация          : UTF-8 Plain Text
Продолжительность                        : 1 ч. 26 м.
Битрейт                                  : 150 бит/сек
ElementCount                             : 1470
Размер потока                            : 95,2 Кбайт (0%)
Заголовок                                : rusFull
Язык                                     : Russian
Default                                  : Нет
Forced                                   : Нет

Текст #2
Идентификатор                            : 5
Формат                                   : UTF-8
Идентификатор кодека                     : S_TEXT/UTF8
Идентификатор кодека/Информация          : UTF-8 Plain Text
Продолжительность                        : 1 ч. 27 м.
Битрейт                                  : 95 бит/сек
ElementCount                             : 1695
Размер потока                            : 61,1 Кбайт (0%)
Заголовок                                : engFull
Язык                                     : English
Default                                  : Нет
Forced                                   : Нет

Меню
00:00:00.000                             : en:00:00:00.000
00:15:40.773                             : en:00:15:40.773
00:22:39.692                             : en:00:22:39.692
00:36:17.425                             : en:00:36:17.425
00:42:17.368                             : en:00:42:17.368
00:56:26.133                             : en:00:56:26.133
01:06:07.964                             : en:01:06:07.964
01:15:05.835                             : en:01:15:05.835
01:23:38.764                             : en:01:23:38.764




Скриншоты:
[+] Всего файлов в раздаче - 1:
SvyazBDRip720p.mkv4.04 GB

Показать еще раздачи по запросу связь:
2020-08-01 U Связь / Coherence (2013) BDRip 1080p | iTunes 7.59 GB ↑ 133 ↓ 67
2020-08-01 U Связь / Coherence (2013) BDRip от MegaPeer | iTunes 1.46 GB ↑ 168 ↓ 56
2020-07-22 U Опасная связь / Опасная Афера / Fatal Affair (2020) WEB-DLRip от Portablius | L2 744.69 MB ↑ 35 ↓ 1
2020-07-04 U Роковая связь / Above Suspicion (2019) WEB-DLRip от Scarabey | iTunes 1.45 GB ↑ 42 ↓ 23
2020-07-03 U Роковая связь / Above Suspicion (2019) WEB-DLRip | iTunes 743.55 MB ↑ 86 ↓ 20
2020-07-03 U Роковая связь / Above Suspicion (2019) WEB-DLRip от ELEKTRI4KA | iTunes 1.46 GB ↑ 98 ↓ 40
2020-07-03 U Роковая связь / Above Suspicion (2019) WEB-DL 1080p от ELEKTRI4KA | iTunes 3.63 GB ↑ 113 ↓ 64

Отзывы
Зарегистрируйтесь чтобы добавить комментарий.
Обратная связь
Copyleft ©