↑↓torrent.by
Поиск
Логин: Регистрация
Пароль: Восстановить пароль

Маша и медведь [05х01-02] (2020) WEB-DLRip-AVC от ExKinoRay

Скачать masha-i-medved-05h01-02-2020-web-dlrip-avc-ot-exkinoray.torrent
U Магнитная ссылка Размер: 245.22 MB Раздают: 70 Качают: 11 Добавлен: 2020-08-01 08:44:00
Маша и медведь [05х01-02] (2020) WEB-DLRip-AVC от ExKinoRay

Оригинальное название: Маша и Медведь
Год выпуска: 2020
Жанр:  Мультсериал, сказка, детский, семейный
Режиссер: Андрей Беляев, Илья Трусов
В ролях: Юлия Зуникова, Борис Кутневич, Катерина Кутневич

О фильме: Мультсериал про девочку Машу, которая никому не дает покоя, и в первую очередь — своему другу Медведю. Сериал рассчитан в первую очередь на детскую аудиторию от 3 до 9 лет. Тем не менее мультфильм семейный, интересный для всех возрастов, взрослые тоже могут посмеяться над приключениями Маши и Медведя.

Выпущено: Россия, Студия "Анимаккорд"
Продолжительность: 2 x ~ 00:07:50
Язык: Русский

Формат: MKV
Качество: WEB-DLRip-AVC
Видео: MPEG-4 AVC, ~ 1900 Kbps, 1024x576 (16:9), 25.000 fps
Аудио: AC3, 2.0, 192 Kbps

Релиз:

Автор релиза:


[+] Содержание

01. Большой поход
02. Что внутри?



[+] ОтчетМедиаИнфо


General
Unique ID                                : 247496000159354586570579427317582495455 (0xBA31FEEB96AF2975B916FF4256917EDF)
Complete name                            : D:Masha.i.medved.S05.WEB-DL.AVC.ExKinoRay1.Boljshoy.pohod.WEB-DL.AVC.ExKinoRay.mkv
Format                                   : Matroska
Format version                           : Version 2
File size                                : 118 MiB
Duration                                 : 7 min
Overall bit rate                         : 2 087 kb/s
Movie name                               : Маша и медведь S0501 Большой поход 2020 from ExKinoRay
Encoded date                             : UTC 2020-07-31 16:00:06
Writing application                      : mkvmerge v5.6.0 ('Kenya Kane') built on May 27 2012 16:44:04
Writing library                          : libebml v1.2.3 + libmatroska v1.3.0

Video
ID                                       : 1
Format                                   : AVC
Format/Info                              : Advanced Video Codec
Format profile                           : High@L4.1
Format settings, CABAC                   : Yes
Format settings, ReFrames                : 11 frames
Codec ID                                 : V_MPEG4/ISO/AVC
Duration                                 : 7 min
Bit rate                                 : 1 900 kb/s
Width                                    : 1 024 pixels
Height                                   : 576 pixels
Display aspect ratio                     : 16:9
Frame rate mode                          : Constant
Frame rate                               : 25.000 FPS
Color space                              : YUV
Chroma subsampling                       : 4:2:0
Bit depth                                : 8 bits
Scan type                                : Progressive
Bits/(Pixel*Frame)                       : 0.129
Stream size                              : 105 MiB (89%)
Title                                    : Enigma
Writing library                          : x264 core 152 r2851 ba24899
Encoding settings                        : cabac=1 / ref=11 / deblock=1:-2:-2 / analyse=0x3:0x113 / me=umh / subme=10 / psy=1 / psy_rd=1.00:0.05 / mixed_ref=1 / me_range=32 / chroma_me=1 / trellis=2 / 8x8dct=1 / cqm=0 / deadzone=21,11 / fast_pskip=0 / chroma_qp_offset=-3 / threads=12 / lookahead_threads=2 / sliced_threads=0 / nr=0 / decimate=0 / interlaced=0 / bluray_compat=0 / constrained_intra=0 / bframes=9 / b_pyramid=2 / b_adapt=2 / b_bias=0 / direct=3 / weightb=1 / open_gop=0 / weightp=2 / keyint=250 / keyint_min=25 / scenecut=40 / intra_refresh=0 / rc=2pass / mbtree=0 / bitrate=1900 / ratetol=1.0 / qcomp=0.60 / qpmin=0 / qpmax=51 / qpstep=4 / cplxblur=20.0 / qblur=0.5 / ip_ratio=1.40 / pb_ratio=1.30 / aq=1:1.00
Default                                  : Yes
Forced                                   : No

Audio
ID                                       : 2
Format                                   : AC-3
Format/Info                              : Audio Coding 3
Mode extension                           : CM (complete main)
Format settings, Endianness              : Big
Codec ID                                 : A_AC3
Duration                                 : 7 min
Bit rate mode                            : Constant
Bit rate                                 : 192 kb/s
Channel(s)                               : 2 channels
Channel positions                        : Front: L R
Sampling rate                            : 48.0 kHz
Frame rate                               : 31.250 FPS (1536 spf)
Compression mode                         : Lossy
Stream size                              : 10.9 MiB (9%)
Language                                 : Russian
Default                                  : Yes
Forced                                   : No




Скриншоты:
[+] Всего файлов в раздаче - 2:
02.Chto.vnytri.WEB-DL.AVC.ExKinoRay.mkv127.30 MB
01.Boljshoy.pohod.WEB-DL.AVC.ExKinoRay.mkv117.91 MB

Похожие раздачи по запросу - маша:
2020-08-01 U Маша и медведь [05х01-02] (2020) WEB-DLRip от ExKinoRay 223.46 MB ↑ 118 ↓ 12
2019-03-10 U Маша и медведь: Вокруг света за один час [77] (2019) WEB-DLRip-AVC от ExKinoRay 117.25 MB ↑ 592 ↓ 50

Отзывы
Зарегистрируйтесь чтобы добавить комментарий.
Обратная связь
Copyleft ©