↑↓torrent.by
Поиск
Логин: Регистрация
Пароль: Восстановить пароль

Махинаторы / Schemers (2020) WEB-DL 720p от ELEKTRI4KA | iTunes

Скачать mahinatory-schemers-2020-web-dl-720p-ot-elektri4ka-itunes.torrent
U Магнитная ссылка Размер: 2.82 GB Раздают: 59 Качают: 33 Добавлен: 2020-08-01 08:44:14
Махинаторы / Schemers (2020) WEB-DL 720p от ELEKTRI4KA | iTunes

Название: Махинаторы
Оригинальное название: Schemers
Год выхода: 2020
Жанр: комедия, биография, криминал
Режиссер: Дэйв Маклин
В ролях: Конор Берри, Шон Коннор, Грант Роберт Килен, Тара Ли, Кит Кларк, Блэр Робертсон, Мингус Джонстон, Пола Мастертон, Кэролин Боннимэн, Ричард Мэйсон

О фильме: Ранние 1980-е. Дэйви, молодой авантюрист из Шотландии, решает стать музыкальным продюсером. В то время по миру гремит с успехом английская группа Iron Maiden. Не имея никакого опыта в этой отрасли, но вооружившись оптимизмом что бы покорить Великобританию, он решает пригласить сразу их. Проблема в том, что за деньгами для амбициозного стартапа приходится обращаться к бандитам…

Выпущено: Великобритания / Schemers Film
Продолжительность: 01:30:30
Озвучивание: Профессиональное (многоголосое) | iTunes

Файл
Формат: MKV
Качество: WEB-DL 720p
Видео: MPEG-4 AVC, 4078 Kb/s, 1280x532
Аудио: Russian: 48 kHz, AC3 Dolby Digital, 3/2 (L, C, R, l, r) + LFE ch, ~384 Kbps
Субтитры: Нет
Дополнительно: Сохранены оригинальные чаптеры.

Релиз: &


[+] MediaInfo:
Complete name: Mahinatoryi.2020.WEB-DL.720p.ELEKTRI4KA.UNIONGANG.mkv
Format: Matroska
Format version: Version 4 / Version 2
File size: 2.82 GiB
Duration: 1 h 30 min
Overall bit rate: 4 463 kb/s
Movie name: .ELEKTRI4KA.UNIONGANG.
Encoded date: UTC 2020-07-31 19:10:21
Writing application: mkvmerge v8.3.0 ('Over the Horizon') 64bit
Writing library: libebml v1.3.1 + libmatroska v1.4.2

Video
ID: 1
Format: AVC
Format/Info: Advanced Video Codec
Format profile: Main@L3.1
Format settings, CABAC: No
Format settings, Reference frames: 2 frames
Codec ID: V_MPEG4/ISO/AVC
Duration: 1 h 30 min
Bit rate: 4 078 kb/s
Width: 1 280 pixels
Height: 532 pixels
Display aspect ratio: 2.40:1
Frame rate mode: Constant
Frame rate: 24.000 FPS
Color space: YUV
Chroma subsampling: 4:2:0
Bit depth: 8 bits
Scan type: Progressive
Bits/(Pixel*Frame): 0.250
Stream size: 2.58 GiB (91%)
Language: English
Default: Yes
Forced: No
Color range: Limited
Color primaries: BT.709
Transfer characteristics: BT.709
Matrix coefficients: BT.709

Audio
ID: 2
Format: AC-3
Format/Info: Audio Coding 3
Mode extension: CM (complete main)
Format settings, Endianness: Big
Codec ID: A_AC3
Duration: 1 h 30 min
Bit rate mode: Constant
Bit rate: 384 kb/s
Channel(s): 6 channels
Channel positions: Front: L C R, Side: L R, LFE
Sampling rate: 48.0 kHz
Frame rate: 31.250 FPS (1536 spf)
Bit depth: 16 bits
Compression mode: Lossy
Stream size: 249 MiB (9%)
Title: MVO [iTunes]
Language: Russian
Default: Yes
Forced: No

Menu
00:00:00.000: en:Глава 1
00:06:35.583: en:Глава 2
00:13:07.124: en:Глава 3
00:18:51.789: en:Глава 4
00:24:02.079: en:Глава 5
00:32:07.704: en:Глава 6
00:42:15.204: en:Глава 7
00:48:12.204: en:Глава 8
00:54:51.079: en:Глава 9
01:04:08.287: en:Глава 10
01:13:51.452: en:Глава 11
01:18:41.327: en:Глава 12
01:25:45.284: en:Глава 13



Скриншоты:
[+] Всего файлов в раздаче - 1:
Mahinatoryi.2020.WEB-DL.720p.ELEKTRI4KA.UNIONGANG.mkv2.82 GB

Похожие раздачи по запросу - махинаторы:
2020-08-03 U Махинаторы / Schemers (2020) WEB-DLRip-AVC | iTunes 1.20 GB ↑ 28 ↓ 8
2020-08-02 U Махинаторы / Schemers (2020) WEB-DLRip от Portablius | iTunes 745.70 MB ↑ 42 ↓ 7
2020-08-01 U Махинаторы / Schemers (2020) WEB-DLRip от ELEKTRI4KA | iTunes 1.46 GB ↑ 162 ↓ 71
2020-08-01 U Махинаторы / Schemers (2020) WEB-DL 1080p от селезень | iTunes 3.14 GB ↑ 208 ↓ 96
2020-01-10 U Discovery. Махинаторы / Wheeler Dealers [18х01-03] (2019) HDTVRip от GeneralFilm| D 1.66 GB ↑ 64 ↓ 7

Отзывы
Зарегистрируйтесь чтобы добавить комментарий.
Обратная связь
Copyleft ©