↑↓torrent.by
Поиск
Логин: Регистрация
Пароль: Восстановить пароль

Тайные двери [01-06] (2020) HDTVRip от Files-x

Скачать taynye-dveri-01-06-2020-hdtvrip-ot-files-x.torrent
U Магнитная ссылка Размер: 3.40 GB Раздают: 34 Качают: 27 Добавлен: 2020-08-01 08:44:34
Тайные двери [01-06] (2020) HDTVRip от Files-x

Оригинальное название: Тайные двери
Год выхода: 2020
Жанр: Детектив
Режиссер: Виталий Ващенко, Игорь Шкурин, Александр Сальников, Артем Титеев, Вячеслав Алешечкин
В ролях: Вадим Цаллати, Дарья Егоркина, Александр Попов (IV), Андрей Фидинчик, Влад Никитюк, Арсен Босенко, Антон Соловей, Анатолий Котенёв, Александр Тютин

О фильме:
"Тайные двери" – это новый детективный сериал, рассказывающий о работе вымышленного специального отдела по раскрытию особо сложных преступлений от создателей культовых сериалов “Пес” и “Отдел 44”. Главным отличием этого отдела от других отделов заключается в том, что они раскрывали преступления в первые сутки после совершения преступления. Среди специалистов выделяется один - Нечаев. Он обладает невероятными способностями сыщика... и невероятно неуживчивым характером. Поэтому в Отделе не могут обойтись без него... Но и с ним работать - невыносимо!

Страна: Украина
Студия: Производство ООО Кинокомпания "Виктория - Универсал Продакшн" по заказу ООО "МК ТРК" (ICTV)
Продолжительность: 6 х 00:46:55
Перевод: Не требуется

Файл
Кодек: XviD
Качество: HDTVRip
Видео: XviD, ~ 1526 Кбит/с, 720x400, 25 кадр/с
Звук: AC3, 2 ch, 192 Кбит/с
Cубтитры: Украинские

Релиз:
[+] MediaInfo

General
Complete name                    : C:01.Тайные двери.s01.E01.(2018).HDTVRip.by.Nicodem.Files-x.avi
Format                           : AVI
Format/Info                      : Audio Video Interleave
File size                        : 580 MiB
Duration                         : 46mn 56s
Overall bit rate                 : 1 728 Kbps
Writing application              : VirtualDubMod 1.5.10.3 | www.virtualdub-fr.org || (build 2550/release)
Writing library                  : VirtualDubMod build 2550/release

Video
ID                               : 0
Format                           : MPEG-4 Visual
Format profile                   : Advanced Simple@L5
Format settings, BVOP            : 1
Format settings, QPel            : No
Format settings, GMC             : No warppoints
Format settings, Matrix          : Custom
Codec ID                         : XVID
Codec ID/Hint                    : XviD
Duration                         : 46mn 56s
Bit rate                         : 1 526 Kbps
Width                            : 720 pixels
Height                           : 400 pixels
Display aspect ratio             : 16:9
Frame rate                       : 25.000 fps
Color space                      : YUV
Chroma subsampling               : 4:2:0
Bit depth                        : 8 bits
Scan type                        : Progressive
Compression mode                 : Lossy
Bits/(Pixel*Frame)               : 0.212
Stream size                      : 512 MiB (88%)
Writing library                  : XviD 73

Audio
ID                               : 1
Format                           : AC-3
Format/Info                      : Audio Coding 3
Mode extension                   : CM (complete main)
Codec ID                         : 2000
Duration                         : 46mn 56s
Bit rate mode                    : Constant
Bit rate                         : 192 Kbps
Channel(s)                       : 2 channels
Channel positions                : Front: L R
Sampling rate                    : 48.0 KHz
Bit depth                        : 16 bits
Compression mode                 : Lossy
Stream size                      : 64.5 MiB (11%)
Alignment                        : Split accross interleaves
Interleave, duration             : 40 ms (1.00 video frame)
Interleave, preload duration     : 500 ms



[+] Если сериал, будут показывать по ТРИ серии в неделю
согласно программе канала (со ВТОРНИКА по ЧЕТВЕРГ) и не снимут с эфира (как было с сериалом "Пёс"), то ФИНАЛЬНЫЕ СЕРИИ в ОКТЯБРЕ.




Скриншоты:
[+] Всего файлов в раздаче - 6:
01.Тайные двери.s01.E01.(2020).HDTVRip.by.Nicodem.Files-x.avi580.08 MB
05.Тайные двери.s01.E05.(2020).HDTVRip.by.Nicodem.Files-x.avi580.13 MB
03.Тайные двери.s01.E03.(2020).HDTVRip.by.Nicodem.Files-x.avi580.14 MB
02.Тайные двери.s01.E02.(2020).HDTVRip.by.Nicodem.Files-x.avi580.24 MB
06.Тайные двери.s01.E06.(2020).HDTVRip.by.Nicodem.Files-x.avi580.27 MB
04.Тайные двери.s01.E04.(2020).HDTVRip.by.Nicodem.Files-x.avi580.31 MB

Показать еще раздачи по запросу тайные:
2020-08-08 U Тайные двери [01-09] (2020) HDTVRip-AVC от Files-x 1К6.58 GB ↑ 27 ↓ 33
2020-08-07 U Тайные двери [01-09] (2020) HDTVRip от Files-x 5.10 GB ↑ 54 ↓ 86
2020-08-06 U Тайные двери [01-08] (2020) HDTVRip-AVC от Files-x 5.84 GB ↑ 50 ↓ 88
2020-08-06 U Тайные двери [01-08] (2020) HDTVRip от Files-x 4.53 GB ↑ 47 ↓ 76
2020-08-06 U Тайные двери [01-07] (2020) HDTVRip от Files-x 3.97 GB ↑ 28 ↓ 30
2020-08-06 U Тайные двери [01-07] (2020) HDTVRip-AVC от Files-x 5.13 GB ↑ 30 ↓ 33
2020-07-31 U Тайные двери [01-06] (2020) HDTVRip-AVC от Files-x 4.41 GB ↑ 98 ↓ 106

Отзывы
Зарегистрируйтесь чтобы добавить комментарий.
Обратная связь
Copyleft ©