↑↓torrent.by
Поиск
Логин: Регистрация
Пароль: Восстановить пароль

Погнали [01-21 из 21] (2019) WEB-DLRip от GeneralFilm | КПК

Скачать pognali-01-21-iz-2019-web-dlrip-ot-generalfilm-kpk.torrent
U Магнитная ссылка Размер: 2.22 GB Раздают: 40 Качают: 37 Добавлен: 2020-08-01 08:45:21
Погнали [01-21 из 21] (2019) WEB-DLRip от GeneralFilm | КПК

Оригинальное название: Погнали
Год выпуска: 2019
Жанр:  Комедия, приключения, ситком
Режиссер: Илья Казанков, Филипп Коршунов
В ролях: Ольга Медынич, Михаил Трухин, Артём Фадеев, Александр Булатов, Виталия Корниенко, Александра Киселёва (II), Ирина Пегова, Дмитрий Лысенков, Иван Ефремов (IV), Маша Лобынцева, Руслан Смирнов, Арсений Сергеев, Мирослава Михайлова, Марта Дромашко, Децл, Владимир Зайцев

О фильме:
Многодетное семейство Осиных отправляется в автопушествие из Красноярска в Минск ради младшей дочки Вари, которая мечтает победить в международном конкурсе народной песни. На пути к детской мечте героев ждут неожиданные попутчики, в том числе бандиты-близнецы, которые преследуют семейный минивэн.

Страна: Россия
Студия: В«Art Pictures Vision» при участии «Varvar Studio»
Продолжительность: 21 x ~ 00:24:00
Перевод: Не требуется

Файл
Формат: MP4
Качество: WEB-DLRip | КПК
Видео: MPEG-4 AVC (x264), 640x360, ~500 kbps, 25.000 fps
Аудио: AAC LC, 48.0 KHz, 2 ch, 128 Kbps
Субтитры: Нет

Семпл

Релиз:


[+] MI
Complete name               : F:КИНОPognali.AVC.KPK.GFPognali.S01.2019.AVC.WEB-DLRip.KPK.GFPognali.s01e17.2019.AVC.WEB-DLRip.KPK.GF.mp4
Format                      : MPEG-4
Codec ID                    : M4V  (isom/iso2/avc1)
File size                   : 112 MiB
Duration                    : 24 min 36 s
Overall bit rate mode       : Variable
Overall bit rate            : 634 kb/s
Writing application         : Lavf53.19.0

Video
ID                          : 1
Format                      : AVC
Format/Info                 : Advanced Video Codec
Format profile              : High@L4.1
Format settings, CABAC      : Yes
Format settings, RefFrames  : 8 frames
Codec ID                    : avc1
Codec ID/Info               : Advanced Video Coding
Duration                    : 24 min 36 s
Bit rate                    : 500 kb/s
Width                       : 640 pixels
Height                      : 360 pixels
Display aspect ratio        : 16:9
Frame rate mode             : Constant
Frame rate                  : 25.000 FPS
Color space                 : YUV
Chroma subsampling          : 4:2:0
Bit depth                   : 8 bits
Scan type                   : Progressive
Bits/(Pixel*Frame)          : 0.087
Stream size                 : 88.0 MiB (79%)
Writing library             : x264 core 148 r2638 7599210
Encoding settings           : cabac=1 / ref=8 / deblock=1:-1:-1 / analyse=0x3:0x133 / me=umh / subme=10 / psy=1 / psy_rd=1.00:0.00 / mixed_ref=1 / me_range=24 / chroma_me=1 / trellis=2 / 8x8dct=1 / cqm=0 / deadzone=21,11 / fast_pskip=1 / chroma_qp_offset=-2 / threads=6 / lookahead_threads=1 / sliced_threads=0 / nr=0 / decimate=1 / interlaced=0 / bluray_compat=0 / constrained_intra=0 / bframes=8 / b_pyramid=2 / b_adapt=2 / b_bias=0 / direct=3 / weightb=1 / open_gop=0 / weightp=2 / keyint=250 / keyint_min=126 / scenecut=40 / intra_refresh=0 / rc_lookahead=40 / rc=2pass / mbtree=1 / bitrate=500 / ratetol=1.0 / qcomp=0.60 / qpmin=0 / qpmax=69 / qpstep=4 / cplxblur=20.0 / qblur=0.5 / ip_ratio=1.40 / aq=1:1.00
Menus                       : 3

Audio
ID                          : 2
Format                      : AAC
Format/Info                 : Advanced Audio Codec
Format profile              : LC
Codec ID                    : 40
Duration                    : 24 min 36 s
Bit rate mode               : Variable
Bit rate                    : 128 kb/s
Channel(s)                  : 2 channels
Channel positions           : Front: L R
Sampling rate               : 48.0 kHz
Frame rate                  : 46.875 FPS (1024 SPF)
Compression mode            : Lossy
Stream size                 : 22.4 MiB (20%)
Default                     : Yes
Alternate group             : 1
Menus                       : 3



Скриншоты:
[+] Всего файлов в раздаче - 21:
Pognali.S01.2019.AVC.WEB-DLRip.KPK.GF/Pognali.s01e11.2019.AVC.WEB-DLRip.KPK.GF.mp493.88 MB
Pognali.S01.2019.AVC.WEB-DLRip.KPK.GF/Pognali.s01e13.2019.AVC.WEB-DLRip.KPK.GF.mp494.54 MB
Pognali.S01.2019.AVC.WEB-DLRip.KPK.GF/Pognali.s01e14.2019.AVC.WEB-DLRip.KPK.GF.mp4100.74 MB
Pognali.S01.2019.AVC.WEB-DLRip.KPK.GF/Pognali.s01e16.2019.AVC.WEB-DLRip.KPK.GF.mp4106.73 MB
Pognali.S01.2019.AVC.WEB-DLRip.KPK.GF/Pognali.s01e05.2019.AVC.WEB-DLRip.KPK.GF.mp4108.55 MB
Pognali.S01.2019.AVC.WEB-DLRip.KPK.GF/Pognali.s01e18.2019.AVC.WEB-DLRip.KPK.GF.mp4108.80 MB
Pognali.S01.2019.AVC.WEB-DLRip.KPK.GF/Pognali.s01e04.2019.AVC.WEB-DLRip.KPK.GF.mp4108.82 MB
Pognali.S01.2019.AVC.WEB-DLRip.KPK.GF/Pognali.s01e08.2019.AVC.WEB-DLRip.KPK.GF.mp4109.25 MB
Pognali.S01.2019.AVC.WEB-DLRip.KPK.GF/Pognali.s01e02.2019.AVC.WEB-DLRip.KPK.GF.mp4109.27 MB
Pognali.S01.2019.AVC.WEB-DLRip.KPK.GF/Pognali.s01e21.2019.AVC.WEB-DLRip.KPK.GF.mp4109.59 MB
Pognali.S01.2019.AVC.WEB-DLRip.KPK.GF/Pognali.s01e15.2019.AVC.WEB-DLRip.KPK.GF.mp4109.97 MB
Pognali.S01.2019.AVC.WEB-DLRip.KPK.GF/Pognali.s01e12.2019.AVC.WEB-DLRip.KPK.GF.mp4109.98 MB
Pognali.S01.2019.AVC.WEB-DLRip.KPK.GF/Pognali.s01e09.2019.AVC.WEB-DLRip.KPK.GF.mp4110.24 MB
Pognali.S01.2019.AVC.WEB-DLRip.KPK.GF/Pognali.s01e01.2019.AVC.WEB-DLRip.KPK.GF.mp4110.24 MB
Pognali.S01.2019.AVC.WEB-DLRip.KPK.GF/Pognali.s01e07.2019.AVC.WEB-DLRip.KPK.GF.mp4110.73 MB
Pognali.S01.2019.AVC.WEB-DLRip.KPK.GF/Pognali.s01e06.2019.AVC.WEB-DLRip.KPK.GF.mp4110.96 MB
Pognali.S01.2019.AVC.WEB-DLRip.KPK.GF/Pognali.s01e10.2019.AVC.WEB-DLRip.KPK.GF.mp4111.02 MB
Pognali.S01.2019.AVC.WEB-DLRip.KPK.GF/Pognali.s01e20.2019.AVC.WEB-DLRip.KPK.GF.mp4111.38 MB
Pognali.S01.2019.AVC.WEB-DLRip.KPK.GF/Pognali.s01e03.2019.AVC.WEB-DLRip.KPK.GF.mp4111.55 MB
Pognali.S01.2019.AVC.WEB-DLRip.KPK.GF/Pognali.s01e17.2019.AVC.WEB-DLRip.KPK.GF.mp4111.56 MB
Pognali.S01.2019.AVC.WEB-DLRip.KPK.GF/Pognali.s01e19.2019.AVC.WEB-DLRip.KPK.GF.mp4112.62 MB

Показать еще раздачи по запросу погнали:
2020-08-01 U Погнали [01-21 из 21] (2019) WEB-DLRip от Files-x 6.35 GB ↑ 27 ↓ 28
2020-07-31 U Погнали [01-21 из 21] (2019) WEB-DL 720p 7.64 GB ↑ 18 ↓ 29
2020-07-31 U Погнали [01-21 из 21] (2019) WEB-DLRip 7.18 GB ↑ 36 ↓ 36
2020-07-31 U Погнали [01-21 из 21] (2019) WEB-DL 1080p 12.88 GB ↑ 36 ↓ 48
2020-07-30 U Погнали [01-20 из 21] (2019) WEB-DLRip от Files-x 6.05 GB ↑ 27 ↓ 42
2020-07-30 U Погнали [01-21 из 21] (2020) SATRip-AVC 5.88 GB ↑ 2 ↓ 24
2020-07-28 U Погнали [01-20 из 21] (2019) WEB-DL 720p 7.27 GB ↑ 31 ↓ 66

Отзывы
Зарегистрируйтесь чтобы добавить комментарий.
Обратная связь
Copyleft ©