↑↓torrent.by
Поиск
Логин: Регистрация
Пароль: Восстановить пароль

Виселица / Hangman (2017) BDRip-AVC | iTunes

Скачать viselica-hangman-2017-bdrip-avc-itunes.torrent
U Магнитная ссылка Размер: 1.41 GB Раздают: 73 Качают: 12 Добавлен: 2020-08-01 08:45:25
Виселица / Hangman (2017) BDRip-AVC | iTunes

«The killing game»

Название: Виселица
Оригинальное название: Hangman
Год выхода: 2017
Жанр: Триллер, драма, криминал, детектив
Режиссер: Джонни Мартин
В ролях: Аль Пачино, Карл Урбан, Бриттани Сноу, Джо Андерсон, Сара Шахи, Слоун Уоррен, Шелл Рамос, Стив Култер, Майкл Эдвард Роуз, Кэтлин Фарруджия

О фильме:
Журналистка Кристи Дэвис пишет статью о работе полиции, сотрудничая с детективом Руни из отдела убийств. И в первый же день они оказываются на месте преступления - девушка повешена, а на груди у нее вырезана буква. А неподалеку в здании детектив Руни находит на стене игру в виселицу и вырезанные цифры, которые совпадают с номерами жетонов его и полицейского в отставке, бывшего детектива Арчера. Пенсионер Арчер с охотой берётся помогать в расследовании, когда становится ясно, что в городе орудует серийный убийца - на следующий день детективы находят ещё одного повешенного.

Страна: США
Студия: Cheyenne Enterprises, Hangman Productions, Moonstone Entertainment, Patriot Pictures LLC
Продолжительность: 01:38:34
Перевод:
• Профессиональный (многоголосый, закадровый) | iTunes
• Профессиональный (многоголосый, закадровый) | HDRezka Studio

Файл
Качество: BDRip-AVC
исходник: Hangman.2017.1080p.BluRay.REMUX.AVC.DTS-HD.MA.5.1 - Seyshel
Формат: MKV
Кодек: MPEG-4 AVC
Видео: 832x348 (2,40:1), 23,976 fps, MPEG-4 AVC ~ 1669 Kbps avg, 0.240 bit/pixel
Аудио: AC3, 48 kHz,  2 ch, ~192.00 kbps avg | русский | iTunes
Аудио: AC3, 48 kHz, 2 ch, ~192.00 kbps avg | русский | HDRezka Studio
Субтитры: Английские (Full)


[+] Инфо-файл
Общее
Уникальный идентификатор                 : 252625394925469730000166346042864516072 (0xBE0DE19B90449496481B4E2FCBFB3BE8)
Полное имя                               : Hangman.2017.BDRip.1.41Gb.x264.mkv
Формат                                   : Matroska
Версия формата                           : Version 4
Размер файла                             : 1,41 Гбайт
Продолжительность                        : 1 ч. 38 м.
Общий поток                              : 2 054 Кбит/сек
Название фильма                          : Виселица / Hangman (2017)
Дата кодирования                         : UTC 2020-07-31 13:30:57
Программа кодирования                    : mkvmerge v47.0.0 ('Black Flag') 64-bit
Библиотека кодирования                   : libebml v1.3.10 + libmatroska v1.5.2
Обложка                                  : Yes
Attachments                              : cover.jpg

Видео
Идентификатор                            : 4
Формат                                   : AVC
Формат/Информация                        : Advanced Video Codec
Профиль формата                          : High@L4.1
Настройки формата                        : CABAC / 11 Ref Frames
Параметр CABAC формата                   : Да
Параметр RefFrames формата               : 11 кадров
Идентификатор кодека                     : V_MPEG4/ISO/AVC
Продолжительность                        : 1 ч. 38 м.
Битрейт                                  : 1 669 Кбит/сек
Ширина                                   : 832 пикселя
Высота                                   : 348 пикселей
Соотношение сторон                       : 2,40:1
Режим частоты кадров                     : Постоянный
Частота кадров                           : 23,976 кадра/сек
Цветовое пространство                    : YUV
Субдискретизация насыщенности            : 4:2:0
Битовая глубина                          : 8 бит
Тип развёртки                            : Прогрессивная
Бит/(Пиксели*Кадры)                      : 0.240
Размер потока                            : 1,15 Гбайт (81%)
Библиотека кодирования                   : x264 core 152 r2851bm ba24899
Настройки программы                      : cabac=1 / ref=11 / deblock=1:-3:-3 / analyse=0x3:0x113 / me=umh / subme=10 / psy=1 / psy_rd=1.00:0.15 / mixed_ref=1 / me_range=32 / chroma_me=1 / trellis=2 / 8x8dct=1 / cqm=0 / deadzone=21,11 / fast_pskip=0 / chroma_qp_offset=-3 / threads=12 / lookahead_threads=3 / sliced_threads=0 / nr=0 / decimate=0 / interlaced=0 / bluray_compat=0 / constrained_intra=0 / bframes=12 / b_pyramid=2 / b_adapt=2 / b_bias=0 / direct=3 / weightb=1 / open_gop=0 / weightp=2 / keyint=240 / keyint_min=23 / scenecut=40 / intra_refresh=0 / rc=2pass / mbtree=0 / bitrate=1669 / ratetol=1.0 / qcomp=0.60 / qpmin=0 / qpmax=69 / qpstep=4 / cplxblur=20.0 / qblur=0.5 / ip_ratio=1.40 / pb_ratio=1.30 / aq=1:1.00
Язык                                     : English
Default                                  : Да
Forced                                   : Нет

Аудио #1
Идентификатор                            : 1
Формат                                   : AC-3
Формат/Информация                        : Audio Coding 3
Коммерческое название                    : Dolby Digital
Идентификатор кодека                     : A_AC3
Продолжительность                        : 1 ч. 38 м.
Вид битрейта                             : Постоянный
Битрейт                                  : 192 Кбит/сек
Каналы                                   : 2 канала
Channel layout                           : L R
Частота                                  : 48,0 КГц
Частота кадров                           : 31,250 кадров/сек (1536 SPF)
Метод сжатия                             : С потерями
Размер потока                            : 135 Мбайт (9%)
Заголовок                                : iTunes
Язык                                     : Russian
Service kind                             : Complete Main
Default                                  : Да
Forced                                   : Нет

Аудио #2
Идентификатор                            : 2
Формат                                   : AC-3
Формат/Информация                        : Audio Coding 3
Коммерческое название                    : Dolby Digital
Идентификатор кодека                     : A_AC3
Продолжительность                        : 1 ч. 38 м.
Вид битрейта                             : Постоянный
Битрейт                                  : 192 Кбит/сек
Каналы                                   : 2 канала
Channel layout                           : L R
Частота                                  : 48,0 КГц
Частота кадров                           : 31,250 кадров/сек (1536 SPF)
Метод сжатия                             : С потерями
Размер потока                            : 135 Мбайт (9%)
Заголовок                                : MVO | HDrezka Studio
Язык                                     : Russian
Service kind                             : Complete Main
Default                                  : Нет
Forced                                   : Нет

Текст
Идентификатор                            : 3
Формат                                   : UTF-8
Идентификатор кодека                     : S_TEXT/UTF8
Идентификатор кодека/Информация          : UTF-8 Plain Text
Продолжительность                        : 1 ч. 37 м.
Битрейт                                  : 62 бит/сек
Count of elements                        : 1393
Размер потока                            : 44,7 Кбайт (0%)
Заголовок                                : Full
Язык                                     : English
Default                                  : Да
Forced                                   : Нет

Меню
00:00:00.000                             : en:CHAPTER01
00:06:34.311                             : en:CHAPTER02
00:14:04.302                             : en:CHAPTER03
00:18:31.277                             : en:CHAPTER04
00:23:44.882                             : en:CHAPTER05
00:30:21.862                             : en:CHAPTER06
00:36:13.922                             : en:CHAPTER07
00:42:59.744                             : en:CHAPTER08
00:51:42.224                             : en:CHAPTER09
00:57:23.815                             : en:CHAPTER10
01:00:11.441                             : en:CHAPTER11
01:09:00.178                             : en:CHAPTER12
01:13:32.658                             : en:CHAPTER13
01:20:24.820                             : en:CHAPTER14
01:29:09.511                             : en:CHAPTER15
01:34:28.663                             : en:CHAPTER16




Скриншоты:
[+] Всего файлов в раздаче - 1:
Hangman.2017.BDRip.1.41Gb.x264.mkv1.41 GB

Похожие раздачи по запросу - виселица:
2020-08-01 U Виселица / Hangman (2017) BDRip 1080p от ELEKTRI4KA | P, L | iTunes 9.52 GB ↑ 122 ↓ 45
2020-08-01 U Виселица / Hangman (2017) BDRip-AVC | iTunes 2.13 GB ↑ 62 ↓ 9
2020-08-01 U Виселица / Hangman (2017) BDRip от MegaPeer | iTunes 1.46 GB ↑ 179 ↓ 40

Отзывы
Зарегистрируйтесь чтобы добавить комментарий.
Загрузите программу
  uTorrent.exe
Обратная связь
Copyleft ©