↑↓torrent.by
Поиск
Логин: Регистрация
Пароль: Восстановить пароль

Махинаторы / Schemers (2020) WEB-DLRip-AVC | iTunes

Скачать mahinatory-schemers-2020-web-dlrip-avc-itunes.torrent
U Магнитная ссылка Размер: 1.20 GB Раздают: 37 Качают: 9 Добавлен: 2020-08-03 04:59:50
Махинаторы / Schemers (2020) WEB-DLRip-AVC | iTunes

Название: Махинаторы
Оригинальное название: Schemers
Год выхода: 2020
Жанр:  комедия, биография, криминал
Режиссер: Дэйв Маклин
В ролях: Конор Берри, Шон Коннор, Грант Роберт Килен, Тара Ли, Кит Кларк, Блэр Робертсон, Мингус Джонстон, Пола Мастертон, Кэролин Боннимэн, Ричард Мэйсон

О фильме:
Ранние 1980-е. Дэйви, молодой авантюрист из Шотландии, решает стать музыкальным продюсером. В то время по миру гремит с успехом английская группа Iron Maiden. Не имея никакого опыта в этой отрасли, но вооружившись оптимизмом чтобы покорить Великобританию, он решает пригласить сразу их. Проблема в том, что за деньгами для амбициозного стартапа приходится обращаться к бандитам…

Выпущено: Великобритания / Schemers Film
Продолжительность: 01:30:29
Перевод: Профессиональный многоголосый | iTunes
Субтитры: Нет

Файл                                      
Формат: Matroska
Качество: WEB-DLRip-AVC
Видео: 1032x430 at 24.000 fps, x264@L4.1, ~1514 kbps, 0.142 bpp
Аудио: AC3, 6 ch, ~384 kbps - | Русский | -

***Релиз от: -=DoMiNo=-


[+] M/I
x264 [info]: frame I:912   Avg QP:16.92  size: 49117
x264 [info]: frame P:31581 Avg QP:18.26  size: 16978
x264 [info]: frame B:97822 Avg QP:20.34  size:  4565

General
Format                      : Matroska
Format version              : Version 4
File size                   : 1.20 GiB
Duration                    : 1 h 30 min
Overall bit rate            : 1 900 kb/s
Movie name                  : Махинаторы.(2020).WEB-DLRip-AVC.[-=DoMiNo=-]
Encoded date                : UTC 2020-08-02 12:07:56
Writing application         : mkvmerge v48.0.0 ('Fortress Around Your Heart') 64-bit
Writing library             : libebml v1.4.0 + libmatroska v1.6.0
Cover                       : Yes
Attachments                 : Cover.jpg / Cover 2.jpg / cover.jpg

Video
ID                          : 1
Format                      : AVC
Format/Info                 : Advanced Video Codec
Format profile              : High@L4.1
Format settings             : CABAC / 11 Ref Frames
Format settings, CABAC      : Yes
Format settings, Reference  : 11 frames
Codec ID                    : V_MPEG4/ISO/AVC
Duration                    : 1 h 30 min
Bit rate                    : 1 514 kb/s
Width                       : 1 032 pixels
Height                      : 430 pixels
Display aspect ratio        : 2.40:1
Frame rate mode             : Constant
Frame rate                  : 24.000 FPS
Color space                 : YUV
Chroma subsampling          : 4:2:0
Bit depth                   : 8 bits
Scan type                   : Progressive
Bits/(Pixel*Frame)          : 0.142
Stream size                 : 980 MiB (80%)
Writing library             : x264 core 161 r3018 db0d417
Encoding settings           : cabac=1 / ref=11 / deblock=1:-3:-3 / analyse=0x3:0x133 / me=umh / subme=10 / psy=1 / psy_rd=1.00:0.20 / mixed_ref=1 / me_range=32 / chroma_me=1 / trellis=2 / 8x8dct=1 / cqm=0 / deadzone=21,11 / fast_pskip=1 / chroma_qp_offset=-3 / threads=6 / lookahead_threads=1 / sliced_threads=0 / nr=0 / decimate=1 / interlaced=0 / bluray_compat=0 / constrained_intra=0 / bframes=12 / b_pyramid=2 / b_adapt=2 / b_bias=0 / direct=1 / weightb=1 / open_gop=0 / weightp=2 / keyint=250 / keyint_min=24 / scenecut=40 / intra_refresh=0 / rc_lookahead=60 / rc=crf / mbtree=0 / crf=19.5 / qcomp=0.60 / qpmin=0 / qpmax=69 / qpstep=4 / vbv_maxrate=50000 / vbv_bufsize=62500 / crf_max=0.0 / nal_hrd=none / filler=0 / ip_ratio=1.40 / pb_ratio=1.30 / aq=1:1.00
Language                    : English
Default                     : Yes
Forced                      : No
Color range                 : Limited
Color primaries             : BT.709
Transfer characteristics    : BT.709
Matrix coefficients         : BT.709

Audio
ID                          : 2
Format                      : AC-3
Format/Info                 : Audio Coding 3
Commercial name             : Dolby Digital
Codec ID                    : A_AC3
Duration                    : 1 h 30 min
Bit rate mode               : Constant
Bit rate                    : 384 kb/s
Channel(s)                  : 6 channels
Channel layout              : L R C LFE Ls Rs
Sampling rate               : 48.0 kHz
Frame rate                  : 31.250 FPS (1536 SPF)
Compression mode            : Lossy
Stream size                 : 249 MiB (20%)
Title                       : MVO_[iTunes]
Language                    : Russian
Service kind                : Complete Main
Default                     : Yes
Forced                      : No

Menu
00:00:00.000                : en:Глава 1
00:06:35.583                : en:Глава 2
00:13:07.124                : en:Глава 3
00:18:51.789                : en:Глава 4
00:24:02.079                : en:Глава 5
00:32:07.704                : en:Глава 6
00:42:15.204                : en:Глава 7
00:48:12.204                : en:Глава 8
00:54:51.079                : en:Глава 9
01:04:08.287                : en:Глава 10
01:13:51.452                : en:Глава 11
01:18:41.327                : en:Глава 12
01:25:45.284                : en:Глава 13



Скриншоты:
[+] Всего файлов в раздаче - 1:
Махинаторы.(2020).WEB-DLRip-AVC.[-=DoMiNo=-].mkv1.20 GB

Похожие раздачи по запросу - махинаторы:
2020-08-02 U Махинаторы / Schemers (2020) WEB-DLRip от Portablius | iTunes 745.70 MB ↑ 78 ↓ 7
2020-08-01 U Махинаторы / Schemers (2020) WEB-DL 720p от ELEKTRI4KA | iTunes 2.82 GB ↑ 60 ↓ 33
2020-08-01 U Махинаторы / Schemers (2020) WEB-DLRip от ELEKTRI4KA | iTunes 1.46 GB ↑ 195 ↓ 72
2020-08-01 U Махинаторы / Schemers (2020) WEB-DL 1080p от селезень | iTunes 3.14 GB ↑ 210 ↓ 97

Отзывы
Зарегистрируйтесь чтобы добавить комментарий.
Загрузите программу
  uTorrent.exe
Обратная связь
Copyleft ©