↑↓torrent.by
Поиск
Логин: Регистрация
Пароль: Восстановить пароль

AC/DC - Dirty Deeds Done Dirt Cheap [24Bit Hi-Res, Remastered] (1976/2020) FLAC

Скачать ac-dc-dirty-deeds-done-dirt-cheap-24bit-hi-res-remastered-1976-2020-flac.torrent
U Магнитная ссылка Размер: 875.87 MB Раздают: 25 Качают: 9 Добавлен: 2020-08-04 06:55:22
AC/DC - Dirty Deeds Done Dirt Cheap [24Bit Hi-Res, Remastered] (1976/2020) FLAC



Исполнитель: AC/DC | Название: Dirty Deeds Done Dirt Cheap
Страна: Australia | Жанр: Hard-Rock
Год: 2020 | Продолжительность: 00:39:09
Формат/Кодек: FLAC | Битрейт аудио: Lossless
Количество каналов: 2.0 | Разрядность: 24/96
Тип рипа: tracks


[+] tracklist
1. Ride On (05:47)
2. Dirty Deeds Done Dirt Cheap (03:46)
3. Love at First Feel (03:05)
4. Big Balls (02:39)
5. Rocker (02:46)
6. Problem Child (05:43)
7. There's Gonna Be Some Rockin' (03:14)
8. Ain't No Fun (Waiting Round to Be a Millionaire) (06:57)
9. Squealer (05:12)



[+] DR
foobar2000 1.5 / Замер динамического диапазона (DR) 1.1.1
Дата отчёта: 2020-08-03 17:13:32

--------------------------------------------------------------------------------
Анализ:   AC/DC / Dirty Deeds Done Dirt Cheap
--------------------------------------------------------------------------------

DR         Пики         RMS           Продолжительность трека
--------------------------------------------------------------------------------
DR8       -0.70 дБ    -9.68 дБ      3:52 01-Dirty Deeds Done Dirt Cheap
DR8       -0.70 дБ    -9.93 дБ      3:13 02-Love at First Feel
DR8       -0.70 дБ    -9.96 дБ      2:39 03-Big Balls
DR8       -0.70 дБ    -9.42 дБ      2:53 04-Rocker
DR7       -0.70 дБ    -8.98 дБ      5:47 05-Problem Child
DR7       -0.70 дБ    -8.52 дБ      3:18 06-There's Gonna Be Some Rockin'
DR6       -0.70 дБ    -8.27 дБ      6:58 07-Ain't No Fun (Waiting Round to Be a Millionaire)
DR7       -0.70 дБ   -11.16 дБ      5:54 08-Ride On
DR8       -0.70 дБ   -10.39 дБ      5:15 09-Squealer
--------------------------------------------------------------------------------

Количество треков: 9
Реальные значения DR: DR7

Частота: 96000 Гц
Каналов: 2
Разрядность: 24
Битрейт: 2950 кбит/с
Кодек: FLAC
================================================================================



Скриншоты:
[+] Всего файлов в раздаче - 10:
01. Dirty Deeds Done Dirt Cheap.flac85.25 MB
02. Love at First Feel.flac73.99 MB
03. Big Balls.flac57.49 MB
04. Rocker.flac65.35 MB
05. Problem Child.flac132.51 MB
08. Ride On.flac119.96 MB
09. Squealer.flac111.30 MB
foo_dr.txt1.49 kB

Похожие раздачи по запросу - dirty:
2020-08-05 U Грязные прелести / Dirty Pretty Things (2002) BDRip-AVC от ExKinoRay | D 745.22 MB ↑ 148 ↓ 18

Отзывы
Зарегистрируйтесь чтобы добавить комментарий.
Загрузите программу
  uTorrent.exe
Обратная связь
Copyleft ©