↑↓torrent.by
Поиск
Логин: Регистрация
Пароль: Восстановить пароль

Убийца гоблинов: Корона гоблина / Goblin Slayer: Goblin's Crown (2020) WEBRip 720p | Sub

Скачать ubiyca-goblinov-korona-goblina-goblin-slayer-s-crown-2020-webrip-720p-sub.torrent
U Магнитная ссылка Размер: 2.45 GB Раздают: 117 Качают: 11 Добавлен: 2020-08-04 06:56:59
Убийца гоблинов: Корона гоблина / Goblin Slayer: Goblin's Crown (2020) WEBRip 720p | Sub


Название: Убийца гоблинов: Корона гоблина
Оригинальное название: Goblin Slayer: Goblin's Crown
Год выхода: 2020
Жанр: приключения, фэнтези
Режиссер: Одзаки Такахару
Художник: Кай Масатоси
В ролях: Умэхара Юйтиро, Огура Юй, Тояма Нао, Накамура Юйти, Сугита Томокадзу
О фильме:
«Пожалуйста, найдите любую информацию о Благородном фехтовальщике, который исчез после ухода, чтобы убить нескольких гоблинов».
Убийца гоблинов и его группа отправляются в снежные горы на севере после получения этого запроса от Девы Меча. На небольшую деревню нападают, они сталкиваются с таинственной часовней, и кое-что о том, как эти гоблины действуют, беспокоит убийцу гоблинов.
«Я собираюсь забрать все, что потерял!»
Чтобы спасти захваченного Благородного Фехтовальщика, Убийца гоблинов и его группа отправляются в древнюю крепость, покрытую снегом, чтобы сразиться с мощным противником и ордой гоблинов!

 
World Art | MAL

Страна: Япония
Студия: White Fox
Продолжительность: 01:25:02
Язык: Японский
Перевод: Субтитры

Файл
Качество: WEBRip
Формат: MKV
Видео кодек: H.264
Аудио кодек: AAC
Видео: 1280x720, 23.976 fps, 4000 kbps
Аудио JAP: 44.1 kHz, AAC, 2 ch, 128 kbps
Субтитры: русские (встроенные полный перевод, ASS) - YakuSub Studio
Субтитры: русские (встроенные полный перевод, ASS) - Alvakarp & WolteR
Субтитры: английские (встроенные полный перевод, ASS)


[+] MediaInfo
General
Format : Matroska
Format version : Version 4
File size : 2.45 GiB
Duration : 1 h 25 min
Overall bit rate : 4 117 kb/s
Encoded date : UTC 2020-08-03 09:15:17
Writing application : mkvmerge v8.3.0 ('Over the Horizon') 32bit
Writing library : libebml v1.3.1 + libmatroska v1.4.2
Attachments : 12200.ttf / FrizQuadrataC.otf / cambriab.ttf / cambriaz.ttf / v_Reggae_v1.ttf / OpenSans-Semibold.ttf

Video
ID : 1
Format : AVC
Format/Info : Advanced Video Codec
Format profile : High@L4
Format settings : CABAC / 6 Ref Frames
Format settings, CABAC : Yes
Format settings, Reference : 6 frames
Codec ID : V_MPEG4/ISO/AVC
Duration : 1 h 25 min
Bit rate : 4 000 kb/s
Width : 1 280 pixels
Height : 720 pixels
Display aspect ratio : 16:9
Frame rate mode : Constant
Frame rate : 23.976 (24000/1001) FPS
Color space : YUV
Chroma subsampling : 4:2:0
Bit depth : 8 bits
Scan type : Progressive
Bits/(Pixel*Frame) : 0.181
Stream size : 2.37 GiB (97%)
Writing library : x264 core 142
Encoding settings : cabac=1 / ref=6 / deblock=1:1:1 / analyse=0x3:0x113 / me=umh / subme=8 / psy=1 / psy_rd=0.40:0.00 / mixed_ref=1 / me_range=16 / chroma_me=1 / trellis=1 / 8x8dct=1 / cqm=0 / deadzone=21,11 / fast_pskip=1 / chroma_qp_offset=-2 / threads=10 / lookahead_threads=1 / sliced_threads=0 / nr=0 / decimate=1 / interlaced=0 / bluray_compat=0 / constrained_intra=0 / bframes=0 / weightp=2 / keyint=96 / keyint_min=48 / scenecut=40 / intra_refresh=0 / rc_lookahead=48 / rc=2pass / mbtree=1 / bitrate=4000 / ratetol=1.0 / qcomp=0.60 / qpmin=0 / qpmax=69 / qpstep=4 / cplxblur=20.0 / qblur=0.5 / vbv_maxrate=6000 / vbv_bufsize=9000 / nal_hrd=none / filler=0 / ip_ratio=1.40 / aq=1:0.60
Default : Yes
Forced : No

Audio
ID : 2
Format : AAC LC
Format/Info : Advanced Audio Codec Low Complexity
Codec ID : A_AAC-2
Duration : 1 h 25 min
Bit rate : 128 kb/s
Channel(s) : 2 channels
Channel layout : L R
Sampling rate : 44.1 kHz
Frame rate : 43.066 FPS (1024 SPF)
Compression mode : Lossy
Stream size : 77.9 MiB (3%)
Title : Original
Language : Japanese
Default : Yes
Forced : No

Text #1
ID : 3
Format : ASS
Codec ID : S_TEXT/ASS
Codec ID/Info : Advanced Sub Station Alpha
Duration : 1 h 21 min
Bit rate : 127 b/s
Count of elements : 994
Compression mode : Lossless
Stream size : 76.4 KiB (0%)
Title : Полные субтитры - YakuSub Studio
Language : Russian
Default : Yes
Forced : No

Text #2
ID : 4
Format : ASS
Codec ID : S_TEXT/ASS
Codec ID/Info : Advanced Sub Station Alpha
Duration : 1 h 21 min
Bit rate : 117 b/s
Count of elements : 981
Compression mode : Lossless
Stream size : 70.0 KiB (0%)
Title : Полные субтитры - Alvakarp & WolteR
Language : Russian
Default : No
Forced : No

Text #3
ID : 5
Format : ASS
Codec ID : S_TEXT/ASS
Codec ID/Info : Advanced Sub Station Alpha
Duration : 1 h 21 min
Bit rate : 87 b/s
Count of elements : 981
Compression mode : Lossless
Stream size : 52.1 KiB (0%)
Title : English
Language : English
Default : No
Forced : No



Скриншоты:
[+] Всего файлов в раздаче - 1:

Похожие раздачи по запросу - убийца:
2020-09-14 U Убийца / Sicario (2015) BDRip 1080p | A 7.76 GB ↑ 73 ↓ 33
2020-08-07 U Убийца гоблинов: Корона гоблина / Goblin Slayer: Goblin's Crown (2020) BDRip-HEVC 1080p | AniDUB, AniStar 834.81 MB ↑ 110 ↓ 27
2020-07-28 U Ассасинаут: Астронавт-убийца / Assassinaut (2019) WEB-DLRip от ExKinoRay | BadBajo 1.39 GB ↑ 53 ↓ 13
2020-05-02 U Джун - наёмный убийца / Хитмэн / Hitman: Agent Jun / Hiteumaen (2020) WEB-DL 1080p от New-Team | L2 4.27 GB ↑ 773 ↓ 98

Отзывы
Зарегистрируйтесь чтобы добавить комментарий.
Загрузите программу
  uTorrent.exe
Обратная связь
Copyleft ©