↑↓torrent.by
Поиск
Логин: Регистрация
Пароль: Восстановить пароль

Убийца гоблинов: Корона гоблина / Goblin Slayer: Goblin's Crown (2020) BDRip-HEVC 1080p | AniDUB, AniStar

Скачать ubiyca-goblinov-korona-goblina-goblin-slayer-s-crown-2020-bdrip-hevc-1080p-anidub-anistar.torrent
U Магнитная ссылка Размер: 834.81 MB Раздают: 119 Качают: 26 Добавлен: 2020-08-07 08:48:11
Убийца гоблинов: Корона гоблина / Goblin Slayer: Goblin's Crown (2020) BDRip-HEVC 1080p | AniDUB, AniStar

Название: Убийца гоблинов: Корона гоблина
Оригинальное название: Goblin Slayer: Goblin's Crown / ゴブリンスレイヤー Goblin's Crown
Год выхода: 2020
Жанр: экшен, приключения, драма, фэнтези, мистика, сенен
Режиссер: Одзаки Такахару
Автор оригинала: Кагю Кумо
Снято по ранобэ: Убийца гоблинов
В ролях: Умэхара Юйтиро, Огура Юй, Тояма Нао, Накамура Юйти, Сугита Томокадзу

О фильме:
На поиски пропавшей дворянки по имени Благородная фехтовальщица, отправляют группу убийц гоблинов в гористую страну зимы на холодный север. Они обнаруживают организованное гнездо гоблинов, которые захватили древнюю дварфскую крепость. Благородная фехтовальщица была подвергнута пыткам и изнасилованию гоблинами, и теперь она сталкивается с эмоциональным испытанием, будучи единственной выжившей в своей группе. С помощью Жрицы она пытается переосмыслить свои чувства, чтобы не идти тем же путем, что и Убийца Гоблинов. В то время как Goblin Slayer Goblins Crown будет эмоциональным путешествием, оно также будет насыщенной феерией. Герой Убийцы гоблинов теперь встретиться со своим новым, сильным противником Гоблин Паладин. Это свирепое существо будет охотиться на них, когда они попытаются сбежать из холодных гор...

Страна: Япония
Студия: White Fox
Продолжительность: 01:00:04
Перевод: Любительский многоголосый (закадровый) | AniDUB
Любительский двухголосный (закадровый) | AniStar

Файл
Кодек: x265 HEVC
Качество: BDRip-HEVC 1080p
Видео: x265, 1920x1080, 1364 kbps, 23,976 fps
Звук:
Звук (Rus(int)): AC-3, 192 kbps, 48,0 KHz, 2 ch | [AniDUB]
Звук (Rus(int)): AC-3, 192 kbps, 48,0 KHz, 2 ch | [AniStar]
Звук (Japanese): AC-3, 192 kbps, 48,0 KHz, 2 ch | [Original]
Субтитры: русские (встроенные полный перевод, ASS)
[+] MediaInfo:
Видео
Идентификатор                            : 1
Формат                                   : HEVC
Формат/Информация                        : High Efficiency Video Coding
Профиль формата                          : Main 10@L5@Main
Идентификатор кодека                     : V_MPEGH/ISO/HEVC
Продолжительность                        : 1 ч. 0 м.
Битрейт                                  : 1 364 Кбит/сек
Ширина                                   : 1 920 пикселей
Высота                                   : 1 080 пикселей
Соотношение сторон                       : 16:9
Режим частоты кадров                     : Постоянный
Частота кадров                           : 23,976 (24000/1001) кадра/сек
Цветовое пространство                    : YUV
Субдискретизация насыщенности            : 4:2:0
Битовая глубина                          : 10 бит
Бит/(Пиксели*Кадры)                      : 0.027
Размер потока                            : 586 Мбайт (70%)
Библиотека кодирования                   : x265 3.2+38-fdbd4e4a2aff:[Windows][GCC 9.2.1][64 bit] 10bit

Аудио #1
Идентификатор                            : 2
Формат                                   : AC-3
Формат/Информация                        : Audio Coding 3
Коммерческое название                    : Dolby Digital
Идентификатор кодека                     : A_AC3
Продолжительность                        : 1 ч. 0 м.
Вид битрейта                             : Постоянный
Битрейт                                  : 192 Кбит/сек
Каналы                                   : 2 канала
Channel layout                           : L R
Частота                                  : 48,0 КГц
Частота кадров                           : 31,250 кадров/сек (1536 SPF)
Метод сжатия                             : С потерями
Размер потока                            : 82,5 Мбайт (10%)
Заголовок                                : AniDUB
Язык                                     : Russian
Service kind                             : Complete Main
Default                                  : Да
Forced                                   : Нет

Аудио #2
Идентификатор                            : 3
Формат                                   : AC-3
Формат/Информация                        : Audio Coding 3
Коммерческое название                    : Dolby Digital
Идентификатор кодека                     : A_AC3
Продолжительность                        : 1 ч. 0 м.
Вид битрейта                             : Постоянный
Битрейт                                  : 192 Кбит/сек
Каналы                                   : 2 канала
Channel layout                           : L R
Частота                                  : 48,0 КГц
Частота кадров                           : 31,250 кадров/сек (1536 SPF)
Метод сжатия                             : С потерями
Размер потока                            : 82,5 Мбайт (10%)
Заголовок                                : AniStar
Язык                                     : Russian
Service kind                             : Complete Main
Default                                  : Нет
Forced                                   : Нет

Аудио #3
Идентификатор                            : 4
Формат                                   : AC-3
Формат/Информация                        : Audio Coding 3
Коммерческое название                    : Dolby Digital
Идентификатор кодека                     : A_AC3
Продолжительность                        : 1 ч. 0 м.
Вид битрейта                             : Постоянный
Битрейт                                  : 192 Кбит/сек
Каналы                                   : 2 канала
Channel layout                           : L R
Частота                                  : 48,0 КГц
Частота кадров                           : 31,250 кадров/сек (1536 SPF)
Метод сжатия                             : С потерями
Размер потока                            : 82,5 Мбайт (10%)
Заголовок                                : Original
Язык                                     : Japanese
Service kind                             : Complete Main
Default                                  : Нет
Forced                                   : Нет

Текст #1
Идентификатор                            : 5
Формат                                   : ASS
Идентификатор кодека                     : S_TEXT/ASS
Идентификатор кодека/Информация          : Advanced Sub Station Alpha
Продолжительность                        : 4 с. 800 мс.
Битрейт                                  : 830 бит/сек
Count of elements                        : 5
Метод сжатия                             : Без потерь
Размер потока                            : 498 байт (0%)
Заголовок                                : Надписи
Язык                                     : Russian
Default                                  : Да
Forced                                   : Нет

Текст #2
Идентификатор                            : 6
Формат                                   : ASS
Идентификатор кодека                     : S_TEXT/ASS
Идентификатор кодека/Информация          : Advanced Sub Station Alpha
Продолжительность                        : 55 м. 53 с.
Битрейт                                  : 122 бит/сек
Count of elements                        : 742
Метод сжатия                             : Без потерь
Размер потока                            : 50,1 Кбайт (0%)
Заголовок                                : Полные субтитры
Язык                                     : Russian
Default                                  : Нет
Forced                                   : Нет

Меню
00:00:00.000                             : en:Chapter 01
00:02:18.305                             : en:Chapter 02
00:11:22.307                             : en:Chapter 03
00:25:21.478                             : en:Chapter 04
00:34:40.662                             : en:Chapter 05
00:44:10.064                             : en:Chapter 06
00:52:24.308                             : en:Chapter 07
00:56:34.224                             : en:Chapter 08



Скриншоты:
[+] Всего файлов в раздаче - 1:

Похожие раздачи по запросу - убийца:
2020-07-28 U Ассасинаут: Астронавт-убийца / Assassinaut (2019) WEB-DLRip от ExKinoRay | BadBajo 1.39 GB ↑ 82 ↓ 13

Отзывы
Зарегистрируйтесь чтобы добавить комментарий.
Загрузите программу
  uTorrent.exe
Обратная связь
Copyleft ©