↑↓torrent.by
Поиск
Логин: Регистрация
Пароль: Восстановить пароль

Скуби-ду / Scoob! (2020) BDRip-AVC | iTunes

Скачать skubi-du-scoob-2020-bdrip-avc-itunes.torrent
U Магнитная ссылка Размер: 2.13 GB Раздают: 32 Качают: 5 Добавлен: 2020-08-16 07:31:50
Скуби-ду / Scoob! (2020) BDRip-AVC | iTunes

«Хвост всему голова»

Название: Скуби-ду
Оригинальное название: Scoob!
Год выхода: 2020
Жанр: Мультфильм, комедия, детектив, приключения, семейный
Режиссер: Тони Червоне
Роли озвучивают: Фрэнк Уэлкер, Уилл Форте, Иэн Армитедж, Марк Уолберг, Джейсон Айзекс, Джина Родригес, Зак Эфрон, Аманда Сайфред, Кирси Клемонс, Кен Жонг

О фильме:
Однажды мальчик по имени Шэгги встречает бездомного щенка, которому дает довольно странную кличку – Скуби-ду. Это становится началом не только настоящей дружбы, но и множества удивительных событий, в которых главные герои принимают самое активное участие. При поддержке школьников Дафни, Фредди и Вельмы приятели создают частное детективное агентство, мечтая помогать городским властям справляться с различными преступниками. Вскоре наступает момент, когда отважным сыщикам приходится столкнуться с реальной опасностью: Подлый Дик собирается выпустить на свободу Цербера, жуткую собаку-призрака, а отчаянная команда должна любой ценой остановить приближающийся апокалипсис.

Страна: США, Канада
Студия: Canadian Film or Video Production Tax Credit (CPTC), Hanna-Barbera Productions, Warner Animation Group, Warner Bros.
Продолжительность: 01:33:46
Перевод:
• Профессиональный (полное дублирование) | iTunes

Файл
Качество: BDRip-AVC
исходник: Scoob.2020.1080p.BluRay.REMUX.AVC.DTS-HD.MA.5.1-FGT
Формат: MKV
Кодек: MPEG-4 AVC
Видео: 1024x428 (2,40:1), 23,976 fps, MPEG-4 AVC ~ 2428 Kbps avg, 0.231 bit/pixel
Аудио: AC3, 48 kHz,  6 ch, ~384.00 kbps avg | русский | iTunes
Аудио: AC3, 48 kHz, 6 ch, ~448.00 kbps avg | английский | Оригинал
Субтитры: Русские (Forced, full), английские (Full)


[+] Инфо-файл
Общее
Уникальный идентификатор                 : 23475498412616307956776919325090034991 (0x11A9376EDA479620F5FF5CB0E270B52F)
Полное имя                               : Scoob!.2020.D.BDRip.2.13Gb.x264.mkv
Формат                                   : Matroska
Версия формата                           : Version 4
Размер файла                             : 2,13 Гбайт
Продолжительность                        : 1 ч. 33 м.
Общий поток                              : 3 255 Кбит/сек
Название фильма                          : Скуби-ду / Scoob! (2020)
Дата кодирования                         : UTC 2020-08-14 16:02:57
Программа кодирования                    : mkvmerge v47.0.0 ('Black Flag') 64-bit
Библиотека кодирования                   : libebml v1.3.10 + libmatroska v1.5.2
Обложка                                  : Yes
Attachments                              : cover.jpg

Видео
Идентификатор                            : 1
Формат                                   : AVC
Формат/Информация                        : Advanced Video Codec
Профиль формата                          : High@L4.1
Настройки формата                        : CABAC / 11 Ref Frames
Параметр CABAC формата                   : Да
Параметр RefFrames формата               : 11 кадров
Идентификатор кодека                     : V_MPEG4/ISO/AVC
Продолжительность                        : 1 ч. 33 м.
Битрейт                                  : 2 428 Кбит/сек
Ширина                                   : 1 024 пикселя
Высота                                   : 428 пикселей
Соотношение сторон                       : 2,40:1
Режим частоты кадров                     : Постоянный
Частота кадров                           : 23,976 кадра/сек
Цветовое пространство                    : YUV
Субдискретизация насыщенности            : 4:2:0
Битовая глубина                          : 8 бит
Тип развёртки                            : Прогрессивная
Бит/(Пиксели*Кадры)                      : 0.231
Размер потока                            : 1,59 Гбайт (74%)
Заголовок                                : #stillet
Библиотека кодирования                   : x264 core 152 r2851bm ba24899
Настройки программы                      : cabac=1 / ref=11 / deblock=1:-2:-2 / analyse=0x3:0x113 / me=umh / subme=10 / psy=1 / psy_rd=1.00:0.15 / mixed_ref=1 / me_range=32 / chroma_me=1 / trellis=2 / 8x8dct=1 / cqm=0 / deadzone=21,11 / fast_pskip=0 / chroma_qp_offset=-3 / threads=8 / lookahead_threads=3 / sliced_threads=0 / nr=0 / decimate=0 / interlaced=0 / bluray_compat=0 / constrained_intra=0 / bframes=10 / b_pyramid=2 / b_adapt=2 / b_bias=0 / direct=3 / weightb=1 / open_gop=0 / weightp=2 / keyint=240 / keyint_min=23 / scenecut=40 / intra_refresh=0 / rc=2pass / mbtree=0 / bitrate=2428 / ratetol=1.0 / qcomp=0.60 / qpmin=0 / qpmax=69 / qpstep=4 / cplxblur=20.0 / qblur=0.5 / ip_ratio=1.40 / pb_ratio=1.30 / aq=1:1.00
Язык                                     : English
Default                                  : Да
Forced                                   : Нет

Аудио #1
Идентификатор                            : 2
Формат                                   : AC-3
Формат/Информация                        : Audio Coding 3
Коммерческое название                    : Dolby Digital
Идентификатор кодека                     : A_AC3
Продолжительность                        : 1 ч. 33 м.
Вид битрейта                             : Постоянный
Битрейт                                  : 384 Кбит/сек
Каналы                                   : 6 каналов
Channel layout                           : L R C LFE Ls Rs
Частота                                  : 48,0 КГц
Частота кадров                           : 31,250 кадров/сек (1536 SPF)
Метод сжатия                             : С потерями
Размер потока                            : 257 Мбайт (12%)
Заголовок                                : iTunes
Язык                                     : Russian
Service kind                             : Complete Main
Default                                  : Да
Forced                                   : Да

Аудио #2
Идентификатор                            : 3
Формат                                   : AC-3
Формат/Информация                        : Audio Coding 3
Коммерческое название                    : Dolby Digital
Идентификатор кодека                     : A_AC3
Продолжительность                        : 1 ч. 33 м.
Вид битрейта                             : Постоянный
Битрейт                                  : 448 Кбит/сек
Каналы                                   : 6 каналов
Channel layout                           : L R C LFE Ls Rs
Частота                                  : 48,0 КГц
Частота кадров                           : 31,250 кадров/сек (1536 SPF)
Метод сжатия                             : С потерями
Размер потока                            : 300 Мбайт (14%)
Язык                                     : English
Service kind                             : Complete Main
Default                                  : Нет
Forced                                   : Нет

Текст #1
Идентификатор                            : 4
Формат                                   : UTF-8
Идентификатор кодека                     : S_TEXT/UTF8
Идентификатор кодека/Информация          : UTF-8 Plain Text
Продолжительность                        : 1 ч. 28 м.
Битрейт                                  : 1 бит/сек
Count of elements                        : 34
Размер потока                            : 1,00 Кбайт (0%)
Заголовок                                : Forced
Язык                                     : Russian
Default                                  : Да
Forced                                   : Да

Текст #2
Идентификатор                            : 5
Формат                                   : UTF-8
Идентификатор кодека                     : S_TEXT/UTF8
Идентификатор кодека/Информация          : UTF-8 Plain Text
Продолжительность                        : 1 ч. 33 м.
Битрейт                                  : 101 бит/сек
Count of elements                        : 1414
Размер потока                            : 69,5 Кбайт (0%)
Заголовок                                : Full
Язык                                     : Russian
Default                                  : Нет
Forced                                   : Нет

Текст #3
Идентификатор                            : 6
Формат                                   : UTF-8
Идентификатор кодека                     : S_TEXT/UTF8
Идентификатор кодека/Информация          : UTF-8 Plain Text
Продолжительность                        : 1 ч. 26 м.
Битрейт                                  : 65 бит/сек
Count of elements                        : 1483
Размер потока                            : 41,9 Кбайт (0%)
Заголовок                                : Full
Язык                                     : English
Default                                  : Нет
Forced                                   : Нет

Меню
00:00:00.000                             : en:Chapter 1
00:07:40.460                             : en:Chapter 2
00:15:15.748                             : en:Chapter 3
00:25:04.086                             : en:Chapter 4
00:34:40.203                             : en:Chapter 5
00:44:58.779                             : en:Chapter 6
00:53:22.533                             : en:Chapter 7
01:01:22.095                             : en:Chapter 8
01:10:20.383                             : en:Chapter 9
01:19:34.353                             : en:Chapter 10
01:27:18.066                             : en:Chapter 11




Скриншоты:
[+] Всего файлов в раздаче - 1:
Scoob!.2020.D.BDRip.2.13Gb.x264.mkv2.13 GB

Показать еще раздачи по запросу скуби:
2020-08-19 U Скуби-ду / Scoob! (2020) BDRip-HEVC 1080p от HEVC-CLUB | iTunes 5.09 GB ↑ 30 ↓ 5
2020-08-18 U Скуби-ду / Scoob! (2020) HDRip от Scarabey | iTunes 1.40 GB ↑ 68 ↓ 15
2020-08-16 U Скуби-ду / Scoob! (2020) UHD BDRemux 2160p от селезень | 4K | HDR | iTunes 43.14 GB ↑ 32 ↓ 63
2020-08-15 U Скуби-ду / Scoob! (2020) BDRip 720p от селезень | iTunes 4.80 GB ↑ 146 ↓ 35
2020-08-14 U Скуби-ду / Scoob! (2020) BDRip 1080p от селезень | iTunes 9.84 GB ↑ 223 ↓ 257
2020-08-14 U Скуби-ду / Scoob! (2020) BDRip от MegaPeer | iTunes 1.46 GB ↑ 430 ↓ 191
2020-07-13 U Скуби-ду / Scoob! (2020) BDRip от MegaPeer | HDRezka Studio 1.46 GB ↑ 39 ↓ 23

Отзывы
Зарегистрируйтесь чтобы добавить комментарий.
Загрузите программу
  uTorrent.exe
Обратная связь
Copyleft ©