↑↓torrent.by
Поиск
Логин: Регистрация
Пароль: Восстановить пароль

Рик и Морти / Rick and Morty [S04] (2019) WEBRip-HEVC 2160p | Сыендук

Скачать rik-i-morti-rick-and-morty-s04-2019-webrip-hevc-2160p-syenduk.torrent
U Магнитная ссылка Размер: 7.65 GB Раздают: 20 Качают: 9 Добавлен: 2020-08-18 05:20:56
Рик и Морти / Rick and Morty [S04] (2019) WEBRip-HEVC 2160p | Сыендук

Название: Рик и Морти
Оригинальное название: Rick and Morty
Год выхода: 2013
Жанр: Комедия, Приключения, Фантастика, Мультсериал
Режиссер: Пит Мишелс, Джон Райс, Джастин Ройланд
В ролях: Джастин Ройланд, Спенсер Грэммер, Сара Чалк, Крис Парнелл, Эрик Бауза, Дэн Хэрмон, Фил Хендри, Брэндон Джонсон, Райан Ридли, Кари Уолгрен

О фильме:
Рик и Морти - американский, научно-фантастический комедийно-приключенческий мультсериал.
В центре внимания - неунывающая парочка, состоящая из внука-школьника и дедушки-ученого.
Вместе они совершат много увлекательных путешествий и докажут существование невероятных явлений.

Страна: США
Продолжительность: ~ 00:22:00
Перевод: Перевод: Профессиональный одноголосый закадровый | Сыендук

Файл
Качество: BDRip-HEVC 2160p
Видео: 3840x2160, 23.976 fps, HEVC, ~4000 kbps, 10bit
Звук: AC3 / 5.1 / 48 kHz / 640 kbps / 16 bit | Сыендук
Звук: AAC / 5.1 / 48 kHz / 324 kbps / 16 bit | Английский
Звук: AAC / 2.0 / 48 kHz / 44 kbps / 16 bit | Комментарии создателей
Субтитры: Русские, Английские


[+] MediaInfo

General
Unique ID                   : 202761869980748738757894784001155307596 (0x988A8404C1D1186F8B168DF87B84984C)
Complete name               : D:Rick and Morty Season 4 (2160p)32 - Edge of Tomorty Rick Die Rickpeat.mkv
Format                      : Matroska
Format version              : Version 4
File size                   : 788 MiB
Duration                    : 22 min 31 s
Overall bit rate            : 4 892 kb/s
Movie name                  : 32 - Edge of Tomorty: Rick Die Rickpeat
Encoded date                : UTC 2020-08-16 07:42:37
Writing application         : mkvmerge v8.3.0 ('Over the Horizon') 64bit
Writing library             : libebml v1.3.1 + libmatroska v1.4.2

Video
ID                          : 1
Format                      : HEVC
Format/Info                 : High Efficiency Video Coding
Format profile              : Main 10@L5@Main
Codec ID                    : V_MPEGH/ISO/HEVC
Duration                    : 22 min 31 s
Bit rate                    : 4 002 kb/s
Width                       : 3 840 pixels
Height                      : 2 160 pixels
Display aspect ratio        : 16:9
Frame rate mode             : Constant
Frame rate                  : 23.976 (24000/1001) FPS
Color space                 : YUV
Chroma subsampling          : 4:2:0
Bit depth                   : 10 bits
Bits/(Pixel*Frame)          : 0.020
Stream size                 : 645 MiB (82%)
Writing library             : x265 3.2+9-971180b100f8:[Windows][MSVC 1923][64 bit] 10bit
Encoding settings           : cpuid=1111039 / frame-threads=3 / numa-pools=12 / wpp / no-pmode / no-pme / no-psnr / ssim / log-level=2 / input-csp=1 / input-res=3840x2160 / interlace=0 / total-frames=32410 / level-idc=0 / high-tier=1 / uhd-bd=0 / ref=4 / no-allow-non-conformance / no-repeat-headers / annexb / no-aud / no-hrd / info / hash=0 / no-temporal-layers / open-gop / min-keyint=23 / keyint=250 / gop-lookahead=0 / bframes=8 / b-adapt=2 / b-pyramid / bframe-bias=40 / rc-lookahead=80 / lookahead-slices=4 / scenecut=40 / radl=0 / no-splice / no-intra-refresh / ctu=64 / min-cu-size=8 / rect / no-amp / max-tu-size=32 / tu-inter-depth=1 / tu-intra-depth=1 / limit-tu=0 / rdoq-level=2 / dynamic-rd=0.00 / ssim-rd / signhide / no-tskip / nr-intra=0 / nr-inter=0 / constrained-intra / strong-intra-smoothing / max-merge=5 / limit-refs=3 / limit-modes / me=4 / subme=7 / merange=57 / temporal-mvp / no-frame-dup / no-hme / weightp / no-weightb / no-analyze-src-pics / deblock=0:0 / sao / no-sao-non-deblock / rd=4 / selective-sao=4 / early-skip / rskip / no-fast-intra / no-tskip-fast / no-cu-lossless / no-b-intra / splitrd-skip / rdpenalty=0 / psy-rd=3.50 / psy-rdoq=2.50 / no-rd-refine / no-lossless / cbqpoffs=0 / crqpoffs=0 / rc=abr / bitrate=4000 / qcomp=0.60 / qpstep=4 / stats-write=0 / stats-read=2 / cplxblur=20.0 / qblur=0.5 / ipratio=1.40 / pbratio=1.30 / aq-mode=3 / aq-strength=0.40 / cutree / zone-count=0 / no-strict-cbr / qg-size=32 / no-rc-grain / qpmax=69 / qpmin=0 / no-const-vbv / sar=0 / overscan=0 / videoformat=5 / range=0 / colorprim=1 / transfer=1 / colormatrix=1 / chromaloc=0 / display-window=0 / cll=0,0 / min-luma=0 / max-luma=1023 / log2-max-poc-lsb=8 / vui-timing-info / vui-hrd-info / slices=1 / no-opt-qp-pps / no-opt-ref-list-length-pps / multi-pass-opt-rps / scenecut-bias=0.05 / no-opt-cu-delta-qp / no-aq-motion / no-hdr / no-hdr-opt / no-dhdr10-opt / no-idr-recovery-sei / analysis-load / analysis-reuse-level=10 / scale-factor=0 / refine-intra=0 / refine-inter=0 / refine-mv=1 / refine-ctu-distortion=0 / limit-sao / ctu-info=0 / no-lowpass-dct / refine-analysis-type=0 / copy-pic=1 / max-ausize-factor=1.0 / no-dynamic-refine / no-single-sei / no-hevc-aq / no-svt / no-field / qp-adaptation-range=1.00
Default                     : Yes
Forced                      : No
Color range                 : Limited
Color primaries             : BT.709
Transfer characteristics    : BT.709
Matrix coefficients         : BT.709

Audio #1
ID                          : 2
Format                      : AC-3
Format/Info                 : Audio Coding 3
Commercial name             : Dolby Digital
Codec ID                    : A_AC3
Duration                    : 22 min 31 s
Bit rate mode               : Constant
Bit rate                    : 640 kb/s
Channel(s)                  : 6 channels
Channel layout              : L R C LFE Ls Rs
Sampling rate               : 48.0 kHz
Frame rate                  : 31.250 FPS (1536 SPF)
Compression mode            : Lossy
Stream size                 : 103 MiB (13%)
Language                    : Russian
Service kind                : Complete Main
Default                     : Yes
Forced                      : Yes

Audio #2
ID                          : 3
Format                      : AAC LC
Format/Info                 : Advanced Audio Codec Low Complexity
Codec ID                    : A_AAC-2
Duration                    : 22 min 31 s
Bit rate                    : 247 kb/s
Channel(s)                  : 6 channels
Channel layout              : C L R Ls Rs LFE
Sampling rate               : 48.0 kHz
Frame rate                  : 46.875 FPS (1024 SPF)
Compression mode            : Lossy
Delay relative to video     : 9 ms
Stream size                 : 39.8 MiB (5%)
Language                    : English
Default                     : No
Forced                      : No

Text #1
ID                          : 4
Format                      : UTF-8
Codec ID                    : S_TEXT/UTF8
Codec ID/Info               : UTF-8 Plain Text
Duration                    : 22 min 15 s
Bit rate                    : 176 b/s
Count of elements           : 491
Stream size                 : 28.7 KiB (0%)
Language                    : Russian
Default                     : No
Forced                      : No

Text #2
ID                          : 5
Format                      : UTF-8
Codec ID                    : S_TEXT/UTF8
Codec ID/Info               : UTF-8 Plain Text
Duration                    : 22 min 28 s
Bit rate                    : 110 b/s
Count of elements           : 574
Stream size                 : 18.2 KiB (0%)
Language                    : English
Default                     : No
Forced                      : No




[+] Скрытый текст


https://en.wikipedia.org/wiki/2K_resolution

Format Resolution
DCI 2K (native resolution) 2048 × 1080
DCI 2K (CinemaScope cropped) 2048 × 858

https://en.wikipedia.org/wiki/4K_resolution

DCI 4K (full frame) 4096 × 3072
Ultra HD 4K 3840 × 2160



Скриншоты:
[+] Всего файлов в раздаче - 10:
32 - Edge of Tomorty Rick Die Rickpeat.mkv788.40 MB
33 - The Old Man and the Seat.mkv810.39 MB
34 - One Crew over the Crewcoo’s Morty.mkv794.84 MB
35 - Claw and Hoarder Special Ricktim’s Morty.mkv797.47 MB
36 - Rattlestar Ricklactica.mkv762.42 MB
37 - Never Ricking Morty.mkv752.47 MB
38 - Promortyus.mkv743.23 MB
39 - The Vat of Acid Episode.mkv792.61 MB
40 - Childrick of Mort.mkv791.63 MB
41 - Star Mort Rickturn of the Jerri.mkv799.65 MB

Похожие раздачи по запросу - морти:
2020-06-03 U Рик и Морти / Rick and Morty [S04] (2019) WEB-DL 1080p | Сыендук 6.17 GB ↑ 101 ↓ 140
2018-07-27 U Рик и Морти / Rick and Morty [S01-03] (2013-2017) BDRip | Сыендук 10.93 GB ↑ 1154 ↓ 289
2017-10-03 U Рик и Морти / Rick and Morty [S03] (2017) WEB-DL 1080p | Сыендук 5.40 GB ↑ 479 ↓ 514

Отзывы
Зарегистрируйтесь чтобы добавить комментарий.
Загрузите программу
  uTorrent.exe
Обратная связь
Copyleft ©