↑↓torrent.by
Поиск
Логин: Регистрация
Пароль: Восстановить пароль

Игры с огнём / Playing with Fire (2019) BDRip-AVC | Лицензия

Скачать igry-s-ognem-playing-with-fire-2019-bdrip-avc-licenziya.torrent
U Магнитная ссылка Размер: 1.46 GB Раздают: 94 Качают: 8 Добавлен: 2020-08-19 05:35:27
Игры с огнём / Playing with Fire (2019) BDRip-AVC | Лицензия

«0% авторитета»

Название: Игры с огнём  
Оригинальное название: Playing with Fire
Год выхода: 2019
Жанр: Комедия, семейный
Режиссер: Энди Фикмен
В ролях: Джон Сина, Кигэн-Майкл Ки, Брианна Хилдебранд, Джон Легуизамо, Кристиан Конвери, Финли Роуз Слэйтер, Джуди Грир, Дэннис Хэйсбёрт, Томми Юроуп, Дэниэл Кадмор, Крис Уэбб, Брэд Келли, Джессика Гарси, Курт Лонг

О фильме:
Когда суровый начальник пожарной части Джейк Карсон и его элитная команда опытных пожарных спасают троих детей, оказавшихся на пути наступающего лесного пожара, они быстро понимают, что никакие тренировки не могли подготовить их к самой сложной работе – стать няньками. Не имея возможности найти родителей детей, они сталкиваются с тем, что их жизни, работа и родное пожарное депо стремительно переворачиваются с ног на голову, ведь дети – как и пожары – дикие и непредсказуемые.

Страна: США
Студия: Broken Road Productions, Nickelodeon Movies, Paramount Players, Walden Media
Продолжительность: 01:35:59
Перевод:
• Профессиональный (полное дублирование) | Лицензия R5

Файл
Качество: BDRip-AVC
Исходник: PLAYING_WITH_FIRE_2019_RMX_BLUEBIRD
Формат: MKV
Кодек: MPEG-4 AVC
Видео: 832x468 (16:9), 23,976 fps, MPEG-4 AVC  ~1726 kbps avg, 0.185 bit/pixel
Аудио: AC3, 48 kHz, 6 ch, ~448.00 kbps avg | русский | R5
Субтитры: Русские (Forced, full)


[+] Инфо-файл
Общее
Уникальный идентификатор                 : 57542490551174571447953467109295008421 (0x2B4A47D2F53B639B12C8DA06DF082AA5)
Полное имя                               : Playing.with.Fire.2019.R5.BDRip.1.46Gb.x264.mkv
Формат                                   : Matroska
Версия формата                           : Version 4
Размер файла                             : 1,46 Гбайт
Продолжительность                        : 1 ч. 35 м.
Общий поток                              : 2 172 Кбит/сек
Название фильма                          : Игры с огнём / Playing with Fire (2019)
Дата кодирования                         : UTC 2020-08-18 18:15:09
Программа кодирования                    : mkvmerge v47.0.0 ('Black Flag') 64-bit
Библиотека кодирования                   : libebml v1.3.10 + libmatroska v1.5.2
Обложка                                  : Yes
Attachments                              : cover.jpg

Видео
Идентификатор                            : 1
Формат                                   : AVC
Формат/Информация                        : Advanced Video Codec
Профиль формата                          : High@L4.1
Настройки формата                        : CABAC / 12 Ref Frames
Параметр CABAC формата                   : Да
Параметр RefFrames формата               : 12 кадров
Идентификатор кодека                     : V_MPEG4/ISO/AVC
Продолжительность                        : 1 ч. 35 м.
Битрейт                                  : 1 726 Кбит/сек
Ширина                                   : 832 пикселя
Высота                                   : 468 пикселей
Соотношение сторон                       : 16:9
Режим частоты кадров                     : Постоянный
Частота кадров                           : 23,976 (24000/1001) кадра/сек
Цветовое пространство                    : YUV
Субдискретизация насыщенности            : 4:2:0
Битовая глубина                          : 8 бит
Тип развёртки                            : Прогрессивная
Бит/(Пиксели*Кадры)                      : 0.185
Размер потока                            : 1,15 Гбайт (79%)
Заголовок                                : #stillet
Библиотека кодирования                   : x264 core 152 r2851bm ba24899
Настройки программы                      : cabac=1 / ref=12 / deblock=1:-2:-2 / analyse=0x3:0x113 / me=umh / subme=10 / psy=1 / psy_rd=1.00:0.15 / mixed_ref=1 / me_range=32 / chroma_me=1 / trellis=2 / 8x8dct=1 / cqm=0 / deadzone=21,11 / fast_pskip=0 / chroma_qp_offset=-3 / threads=8 / lookahead_threads=3 / sliced_threads=0 / nr=0 / decimate=0 / interlaced=0 / bluray_compat=0 / constrained_intra=0 / bframes=11 / b_pyramid=2 / b_adapt=2 / b_bias=0 / direct=3 / weightb=1 / open_gop=0 / weightp=2 / keyint=240 / keyint_min=23 / scenecut=40 / intra_refresh=0 / rc=2pass / mbtree=0 / bitrate=1726 / ratetol=1.0 / qcomp=0.60 / qpmin=0 / qpmax=69 / qpstep=4 / cplxblur=20.0 / qblur=0.5 / ip_ratio=1.40 / pb_ratio=1.30 / aq=1:1.00
Язык                                     : English
Default                                  : Да
Forced                                   : Нет

Аудио
Идентификатор                            : 2
Формат                                   : AC-3
Формат/Информация                        : Audio Coding 3
Коммерческое название                    : Dolby Digital
Идентификатор кодека                     : A_AC3
Продолжительность                        : 1 ч. 35 м.
Вид битрейта                             : Постоянный
Битрейт                                  : 448 Кбит/сек
Каналы                                   : 6 каналов
Channel layout                           : L R C LFE Ls Rs
Частота                                  : 48,0 КГц
Частота кадров                           : 31,250 кадров/сек (1536 SPF)
Метод сжатия                             : С потерями
Размер потока                            : 308 Мбайт (21%)
Заголовок                                : DUB | R5
Язык                                     : Russian
Service kind                             : Complete Main
Default                                  : Да
Forced                                   : Да

Текст #1
Идентификатор                            : 3
Формат                                   : UTF-8
Идентификатор кодека                     : S_TEXT/UTF8
Идентификатор кодека/Информация          : UTF-8 Plain Text
Продолжительность                        : 1 ч. 35 м.
Битрейт                                  : 3 бит/сек
Count of elements                        : 44
Размер потока                            : 2,29 Кбайт (0%)
Заголовок                                : Forced
Язык                                     : Russian
Default                                  : Да
Forced                                   : Да

Текст #2
Идентификатор                            : 4
Формат                                   : UTF-8
Идентификатор кодека                     : S_TEXT/UTF8
Идентификатор кодека/Информация          : UTF-8 Plain Text
Продолжительность                        : 1 ч. 35 м.
Битрейт                                  : 112 бит/сек
Count of elements                        : 1544
Размер потока                            : 78,6 Кбайт (0%)
Заголовок                                : Full
Язык                                     : Russian
Default                                  : Нет
Forced                                   : Нет

Меню
00:00:00.000                             : en:00:00:00.000
00:04:34.483                             : en:00:04:34.483
00:11:38.823                             : en:00:11:38.823
00:18:42.246                             : en:00:18:42.246
00:23:04.675                             : en:00:23:04.675
00:28:04.224                             : en:00:28:04.224
00:32:23.984                             : en:00:32:23.984
00:41:30.571                             : en:00:41:30.571
00:48:22.399                             : en:00:48:22.399
00:52:17.760                             : en:00:52:17.760
00:57:26.693                             : en:00:57:26.693
01:02:15.231                             : en:01:02:15.231
01:10:37.525                             : en:01:10:37.525
01:16:56.237                             : en:01:16:56.237
01:23:43.852                             : en:01:23:43.852
01:29:19.271                             : en:01:29:19.271




Скриншоты:
[+] Всего файлов в раздаче - 1:
Playing.with.Fire.2019.R5.BDRip.1.46Gb.x264.mkv1.46 GB

Показать еще раздачи по запросу игры:
2020-08-25 U Игры джентльменов / The Ladykillers (2004) WEB-DL 1080p | D, P, A 9.43 GB ↑ 39 ↓ 25
2020-07-17 U Halo: The Master Chief Collection [v1.1698.0.0 + 4 игры] (2019) PC | RePack от FitGirl 35.54 GB ↑ 78 ↓ 164
2020-06-20 U Вне игры / The Way Back (2020) BDRip от Twister & ExKinoRay | iTunes 1.41 GB ↑ 116 ↓ 14
2020-06-19 U Вне игры / The Way Back (2020) BDRip 720p от селезень | D, P | iTunes 7.84 GB ↑ 165 ↓ 81
2020-06-19 U Вне игры / The Way Back (2020) BDRip 1080p от селезень | D, P | iTunes 11.45 GB ↑ 316 ↓ 70
2020-06-19 U Вне игры / The Way Back (2020) BDRip от MegaPeer | iTunes 1.41 GB ↑ 54 ↓ 18
2020-05-13 U Вне игры / The Way Back (2020) BDRip 1080p от селезень | HDRezka Studio 11.16 GB ↑ 164 ↓ 38

Отзывы
Зарегистрируйтесь чтобы добавить комментарий.
Загрузите программу
  uTorrent.exe
Обратная связь
Copyleft ©