↑↓torrent.by
Поиск
Логин: Регистрация
Пароль: Восстановить пароль

Трансформеры: Война за Кибертрон / Transformers: War for Cybertron [S01] (2020) WEBRip 1080p | LostFilm

Скачать transformery-voyna-za-kibertron-transformers-war-for-cybertron-s01-2020-webrip-1080p-lostfilm.torrent
U Магнитная ссылка Размер: 8.17 GB Раздают: 55 Качают: 20 Добавлен: 2020-08-21 11:56:50
Трансформеры: Война за Кибертрон / Transformers: War for Cybertron [S01] (2020) WEBRip 1080p | LostFilm

Название: Трансформеры: Война за Кибертрон
Оригинальное название: Transformers: War for Cybertron
Год выхода: 2020
Жанр: мультфильм, фантастика, боевик
Режиссер: Такаши Камей
В ролях: Фрэнк Тодаро, Кит Силверштейн, Эдвард Боско, Билл Роджерс, Тодд Хаберкорн, Марк Уиттен, Джорджия Рид, Джо Зиеха, Шон Хоукинс

О фильме: «Трансформеры: Битва за Кибертрон» — это анимационный сериал стриминговой платформы Netflix, рассказывающий историю серии игрушечных роботов компании Hasbro. Мультфильм является перезапуском и переосмыслением мифологии масштабной франшизы, начало которой было положено в 1984 году. Новый сериал содержит множество отсылок к транслировавшейся в 1980-1990-х классической версии. За производство телешоу отвечают компания Rooster Teeth, анимационная студия Polygon Pictures («Звездные войны: Сопротивление») и подразделение Hasbro — Allspark Animation. Над сценарием трудились Джордж Крстич («Звездные войны: Войны клонов»), Гэвин Хайнайт и Брэндон М. Истон («Агент Картер»), а шоураннером выступил Ф.Дж. ДеСанто, до этого уже работавший с другими проектами о Трансформерах.

Трансформеры — раса одушевленных роботов с планеты Кибертрон, которые делятся на автоботов и десептиконов. Однажды гражданская война между двумя коалициями приводит к полному разрушению цивилизации. Автоботы оказываются на грани вымирания, в то время как десептиконы готовятся уничтожить последних выживших и заново создать жизнь с помощью древнего артефакта — Искры. Оптимус Прайм, предводитель автоботов, предпринимает отчаянные попытки помешать главному врагу, Мегатрону, завладеть этой силой. Погоня за источником жизни приводит гигантские машины на планету Земля, которая может стать полем для решающей битвы.

Страна: США
Студия: Hasbro Inc., Netflix Studios
Продолжительность: ~00:24:00 серия
Перевод: Профессиональный (многоголосый, закадровый) LostFilm

Файл
Качество: WEBRip 1080p
Формат: Matroska
Видео: 1920x1080 at 24.000 fps, MPEG-4 AVC, ~7000 kbps avg
Аудио#1: Russian: 48 kHz, AC3, 2/0 (L,R) ch, ~384 kbps avg |Многоголосый закадровый, LostFilm|
Аудио#2: English: 48 kHz, E-AC3 JOC, 3/2 (L,C,R,l,r) + LFE ch, ~768 kbps avg
Субтитры: Russian (Full), English (SDH)

***Примечание: Без рекламы
***Релиз: kogesan


[+] MediaInfo
Общее
Уникальный идентификатор                 : 170193080184616977723394132221987779372 (0x8009FEB4BFA6072D23CD4EA37629F32C)
Полное имя                               : Transformers.War.For.Cybertron.Trilogy.S01E01.WEB.1080p.LF.RGzsRutrаckеr.mkv
Формат                                   : Matroska
Версия формата                           : Version 4
Размер файла                             : 1,42 Гбайт
Продолжительность                        : 24 м. 54 с.
Режим общего битрейта                    : Переменный
Общий поток                              : 8 184 Кбит/сек
Дата кодирования                         : UTC 2020-08-04 13:58:40
Программа кодирования                    : mkvmerge v49.0.0 ('Sick Of Losing Soulmates') 64-bit
Библиотека кодирования                   : libebml v1.4.0 + libmatroska v1.6.1

Видео
Идентификатор                            : 1
Формат                                   : AVC
Формат/Информация                        : Advanced Video Codec
Профиль формата                          : High@L4
Настройки формата                        : CABAC / 4 Ref Frames
Параметр CABAC формата                   : Да
Параметр RefFrames формата               : 4 кадра
Идентификатор кодека                     : V_MPEG4/ISO/AVC
Продолжительность                        : 24 м. 54 с.
Вид битрейта                             : Переменный
Битрейт                                  : 7 030 Кбит/сек
Максимальный битрейт                     : 20,0 Мбит/сек
Ширина                                   : 1 920 пикселей
Высота                                   : 1 080 пикселей
Соотношение сторон                       : 16:9
Режим частоты кадров                     : Постоянный
Частота кадров                           : 24,000 кадра/сек
Цветовое пространство                    : YUV
Субдискретизация насыщенности            : 4:2:0
Битовая глубина                          : 8 бит
Тип развёртки                            : Прогрессивная
Бит/(Пиксели*Кадры)                      : 0.141
Размер потока                            : 1,22 Гбайт (86%)
Библиотека кодирования                   : x264 core 148 r2721 6d200cf
Настройки программы                      : cabac=1 / ref=4 / deblock=1:0:0 / analyse=0x3:0x111 / me=umh / subme=10 / psy=1 / psy_rd=1.00:0.00 / mixed_ref=1 / me_range=120 / chroma_me=1 / trellis=2 / 8x8dct=1 / cqm=0 / deadzone=21,11 / fast_pskip=1 / chroma_qp_offset=-2 / threads=8 / lookahead_threads=2 / sliced_threads=0 / nr=0 / decimate=1 / interlaced=0 / bluray_compat=0 / stitchable=1 / constrained_intra=0 / bframes=16 / b_pyramid=2 / b_adapt=2 / b_bias=0 / direct=3 / weightb=1 / open_gop=0 / weightp=2 / keyint=240 / keyint_min=121 / scenecut=0 / intra_refresh=0 / rc_lookahead=240 / rc=crf / mbtree=1 / crf=16.0 / qcomp=0.50 / qpmin=6 / qpmax=51 / qpstep=4 / vbv_maxrate=20000 / vbv_bufsize=25000 / crf_max=0.0 / nal_hrd=vbr / filler=0 / ip_ratio=1.40 / aq=1:0.80
Язык                                     : English
Default                                  : Да
Forced                                   : Нет

Аудио #1
Идентификатор                            : 2
Формат                                   : AC-3
Формат/Информация                        : Audio Coding 3
Коммерческое название                    : Dolby Digital
Идентификатор кодека                     : A_AC3
Продолжительность                        : 24 м. 54 с.
Вид битрейта                             : Постоянный
Битрейт                                  : 384 Кбит/сек
Каналы                                   : 2 канала
Channel layout                           : L R
Частота                                  : 48,0 КГц
Частота кадров                           : 31,250 кадров/сек (1536 SPF)
Метод сжатия                             : С потерями
Размер потока                            : 68,4 Мбайт (5%)
Заголовок                                : LF
Язык                                     : Russian
Service kind                             : Complete Main
Default                                  : Да
Forced                                   : Нет

Аудио #2
Идентификатор                            : 3
Формат                                   : E-AC-3 JOC
Формат/Информация                        : Enhanced AC-3 with Joint Object Coding
Коммерческое название                    : Dolby Digital Plus with Dolby Atmos
Идентификатор кодека                     : A_EAC3
Продолжительность                        : 24 м. 54 с.
Вид битрейта                             : Постоянный
Битрейт                                  : 768 Кбит/сек
Каналы                                   : 6 каналов
Channel layout                           : L R C LFE Ls Rs
Частота                                  : 48,0 КГц
Частота кадров                           : 31,250 кадров/сек (1536 SPF)
Метод сжатия                             : С потерями
Размер потока                            : 137 Мбайт (9%)
Заголовок                                : Eng
Язык                                     : English
Service kind                             : Complete Main
Default                                  : Нет
Forced                                   : Нет
Complexity index                         : 16
Number of dynamic objects                : 15
Bed channel count                        : 1 канал
Bed channel configuration                : LFE

Текст #1
Идентификатор                            : 4
Формат                                   : UTF-8
Идентификатор кодека                     : S_TEXT/UTF8
Идентификатор кодека/Информация          : UTF-8 Plain Text
Продолжительность                        : 23 м. 56 с.
Битрейт                                  : 76 бит/сек
Count of elements                        : 282
Размер потока                            : 13,4 Кбайт (0%)
Заголовок                                : Russian
Язык                                     : Russian
Default                                  : Нет
Forced                                   : Нет

Текст #2
Идентификатор                            : 5
Формат                                   : UTF-8
Идентификатор кодека                     : S_TEXT/UTF8
Идентификатор кодека/Информация          : UTF-8 Plain Text
Продолжительность                        : 22 м. 40 с.
Битрейт                                  : 62 бит/сек
Count of elements                        : 353
Размер потока                            : 10,4 Кбайт (0%)
Заголовок                                : SDH
Язык                                     : English
Default                                  : Нет
Forced                                   : Нет



Скриншоты:
[+] Всего файлов в раздаче - 6:
Transformers.War.For.Cybertron.Trilogy.S01E06.WEB.1080p.LF.RGzsRutracker.mkv1.32 GB
Transformers.War.For.Cybertron.Trilogy.S01E02.WEB.1080p.LF.RGzsRutracker.mkv1.34 GB
Transformers.War.For.Cybertron.Trilogy.S01E03.WEB.1080p.LF.RGzsRutracker.mkv1.35 GB
Transformers.War.For.Cybertron.Trilogy.S01E04.WEB.1080p.LF.RGzsRutracker.mkv1.36 GB
Transformers.War.For.Cybertron.Trilogy.S01E05.WEB.1080p.LF.RGzsRutracker.mkv1.38 GB
Transformers.War.For.Cybertron.Trilogy.S01E01.WEB.1080p.LF.RGzsRutracker.mkv1.42 GB

Похожие раздачи по запросу - трансформеры:
2020-08-08 U Трансформеры: Война за Кибертрон / Transformers: War for Cybertron [01x01-02 из 06] (2020) WEBRip 1080p | LostFilm 2.77 GB ↑ 57 ↓ 15
2017-09-19 U Трансформеры: Последний рыцарь / Transformers: The Last Knight (2017) BDRip от MegaPeer | iTunes 2.84 GB ↑ 1795 ↓ 374
2017-09-07 U Трансформеры: Последний рыцарь / Transformers: The Last Knight (2017) WEBRip | Звук с TS 1.37 GB ↑ 1247 ↓ 301

Отзывы
Зарегистрируйтесь чтобы добавить комментарий.
Загрузите программу
  uTorrent.exe
Обратная связь
Copyleft ©