↑↓torrent.by
Поиск
Логин: Регистрация
Пароль: Восстановить пароль

Данк или сквозняк? / Кольца / Hoops [S01] (2020) WEB-DL 1080p | Пифагор

Скачать dank-ili-skvoznyak-kolca-hoops-s01-2020-web-dl-1080p-pifagor.torrent
U Магнитная ссылка Размер: 7.11 GB Раздают: 57 Качают: 22 Добавлен: 2020-08-22 06:30:03
Данк или сквозняк? / Кольца / Hoops [S01] (2020) WEB-DL 1080p | Пифагор

Название: Данк или сквозняк? / Кольца
Оригинальное название: Hoops
Год выхода: 2020
Жанр: мультфильм, комедия, спорт
Режиссер: Бен Хоффман
В ролях: Джейк Джонсон, Рон Фанчес, Клео Кинг, Наташа Леджеро, А.Д. Майлз, Роб Риггл

О фильме: Энергичный и вульгарный тренер по баскетболу считает, что, если он сможет превратить свою жалкую школьную команду в орлов спорта, он поднимется в «высшую лигу» и изменит свою никчёмную жизнь.

Страна: США
Студия: 20th Century Fox Television
Продолжительность: ~00:28:00 серия
Перевод: Профессиональный (дублированный) Пифагор по заказу Netflix

Файл
Качество: WEB-DL 1080p
Формат: Matroska
Видео: 1920x1080 at 23.976 fps, MPEG-4 AVC, ~2700 kbps avg
Аудио#1: Russian: 48 kHz, E-AC3, 3/2 (L,C,R,l,r) + LFE ch, ~640 kbps avg |Дубляж, Пифагор по заказу Netflix|
Аудио#2: English: 48 kHz, E-AC3, 3/2 (L,C,R,l,r) + LFE ch, ~640 kbps avg
Cубтитры: Russian (Forced, Full), English (SDH) и другие

***Примечание: Без рекламы
***Релиз: Wilmots@EniaHD


[+] MediaInfo
General
Unique ID                      : 135480228482289526218566677197856340468 (0x65EC8AFAE1A465AF60322335417279F4)
Complete name                  : Hoops.S01E01.1080p.NF.WEB-DL.DDP5.1.x264-EniaHD.mkv
Format                         : Matroska
Format version                 : Version 4
File size                      : 701 MiB
Duration                       : 25 min 4 s
Overall bit rate mode          : Variable
Overall bit rate               : 3 907 kb/s
Movie name                     : Hoops S01E01 - EniaHD
Encoded date                   : UTC 2020-08-21 07:36:23
Writing application            : mkvmerge v49.0.0 ('Sick Of Losing Soulmates') 64-bit
Writing library                : libebml v1.4.0 + libmatroska v1.6.1

Video
ID                             : 1
Format                         : AVC
Format/Info                    : Advanced Video Codec
Format profile                 : Main@L4
Format settings                : CABAC / 3 Ref Frames
Format settings, CABAC         : Yes
Format settings, Reference fra : 3 frames
Codec ID                       : V_MPEG4/ISO/AVC
Duration                       : 25 min 3 s
Bit rate mode                  : Variable
Bit rate                       : 2 740 kb/s
Maximum bit rate               : 4 110 kb/s
Width                          : 1 920 pixels
Height                         : 1 080 pixels
Display aspect ratio           : 16:9
Frame rate mode                : Constant
Frame rate                     : 23.976 (24000/1001) FPS
Color space                    : YUV
Chroma subsampling             : 4:2:0
Bit depth                      : 8 bits
Scan type                      : Progressive
Bits/(Pixel*Frame)             : 0.055
Stream size                    : 470 MiB (67%)
Writing library                : x264 core 148 r2722 1b0121b
Encoding settings              : cabac=1 / ref=3 / deblock=1:0:0 / analyse=0x1:0x111 / me=umh / subme=10 / psy=1 / psy_rd=1.00:0.00 / mixed_ref=1 / me_range=24 / chroma_me=1 / trellis=2 / 8x8dct=0 / cqm=0 / deadzone=21,11 / fast_pskip=1 / chroma_qp_offset=-2 / threads=8 / lookahead_threads=1 / sliced_threads=0 / nr=0 / decimate=1 / interlaced=0 / bluray_compat=0 / stitchable=1 / constrained_intra=0 / bframes=2 / b_pyramid=0 / b_adapt=2 / b_bias=0 / direct=3 / weightb=1 / open_gop=0 / weightp=2 / keyint=250 / keyint_min=23 / scenecut=0 / intra_refresh=0 / rc_lookahead=48 / rc=2pass / mbtree=1 / bitrate=2740 / ratetol=1.0 / qcomp=0.50 / qpmin=6 / qpmax=51 / qpstep=4 / cplxblur=20.0 / qblur=0.5 / vbv_maxrate=4110 / vbv_bufsize=5480 / nal_hrd=vbr / filler=0 / ip_ratio=1.40 / aq=1:1.00
Default                        : Yes
Forced                         : No

Audio #1
ID                             : 2
Format                         : E-AC-3
Format/Info                    : Enhanced AC-3
Commercial name                : Dolby Digital Plus
Codec ID                       : A_EAC3
Duration                       : 25 min 4 s
Bit rate mode                  : Constant
Bit rate                       : 640 kb/s
Channel(s)                     : 6 channels
Channel layout                 : L R C LFE Ls Rs
Sampling rate                  : 48.0 kHz
Frame rate                     : 31.250 FPS (1536 SPF)
Compression mode               : Lossy
Stream size                    : 115 MiB (16%)
Language                       : Russian
Service kind                   : Complete Main
Default                        : Yes
Forced                         : No

Audio #2
ID                             : 3
Format                         : E-AC-3
Format/Info                    : Enhanced AC-3
Commercial name                : Dolby Digital Plus
Codec ID                       : A_EAC3
Duration                       : 25 min 4 s
Bit rate mode                  : Constant
Bit rate                       : 640 kb/s
Channel(s)                     : 6 channels
Channel layout                 : L R C LFE Ls Rs
Sampling rate                  : 48.0 kHz
Frame rate                     : 31.250 FPS (1536 SPF)
Compression mode               : Lossy
Stream size                    : 115 MiB (16%)
Language                       : English
Service kind                   : Complete Main
Default                        : No
Forced                         : No

Text #1
ID                             : 4
Format                         : UTF-8
Codec ID                       : S_TEXT/UTF8
Codec ID/Info                  : UTF-8 Plain Text
Duration                       : 23 min 28 s
Bit rate                       : 3 b/s
Count of elements              : 14
Stream size                    : 655 Bytes (0%)
Title                          : Forced
Language                       : Russian
Default                        : Yes
Forced                         : No

Text #2
ID                             : 5
Format                         : UTF-8
Codec ID                       : S_TEXT/UTF8
Codec ID/Info                  : UTF-8 Plain Text
Duration                       : 23 min 28 s
Bit rate                       : 170 b/s
Count of elements              : 483
Stream size                    : 29.3 KiB (0%)
Language                       : Russian
Default                        : No
Forced                         : No

Text #3
ID                             : 6
Format                         : UTF-8
Codec ID                       : S_TEXT/UTF8
Codec ID/Info                  : UTF-8 Plain Text
Duration                       : 23 min 9 s
Bit rate                       : 120 b/s
Count of elements              : 522
Stream size                    : 20.5 KiB (0%)
Title                          : SDH
Language                       : English
Default                        : No
Forced                         : No

Text #4
ID                             : 7
Format                         : UTF-8
Codec ID                       : S_TEXT/UTF8
Codec ID/Info                  : UTF-8 Plain Text
Duration                       : 23 min 28 s
Bit rate                       : 102 b/s
Count of elements              : 395
Stream size                    : 17.7 KiB (0%)
Language                       : German
Default                        : No
Forced                         : No

Text #5
ID                             : 8
Format                         : UTF-8
Codec ID                       : S_TEXT/UTF8
Codec ID/Info                  : UTF-8 Plain Text
Duration                       : 23 min 28 s
Bit rate                       : 100 b/s
Count of elements              : 462
Stream size                    : 17.2 KiB (0%)
Language                       : Spanish
Default                        : No
Forced                         : No

Text #6
ID                             : 9
Format                         : UTF-8
Codec ID                       : S_TEXT/UTF8
Codec ID/Info                  : UTF-8 Plain Text
Duration                       : 23 min 28 s
Bit rate                       : 97 b/s
Count of elements              : 498
Stream size                    : 16.8 KiB (0%)
Language                       : French
Default                        : No
Forced                         : No

Text #7
ID                             : 10
Format                         : UTF-8
Codec ID                       : S_TEXT/UTF8
Codec ID/Info                  : UTF-8 Plain Text
Duration                       : 23 min 28 s
Bit rate                       : 101 b/s
Count of elements              : 428
Stream size                    : 17.5 KiB (0%)
Language                       : Italian
Default                        : No
Forced                         : No

Text #8
ID                             : 11
Format                         : UTF-8
Codec ID                       : S_TEXT/UTF8
Codec ID/Info                  : UTF-8 Plain Text
Duration                       : 23 min 28 s
Bit rate                       : 96 b/s
Count of elements              : 471
Stream size                    : 16.6 KiB (0%)
Title                          : Brazilian
Language                       : Portuguese
Default                        : No
Forced                         : No



Скриншоты:
[+] Всего файлов в раздаче - 10:
Hoops.S01E04.1080p.NF.WEB-DL.DDP5.1.x264-EniaHD.mkv806.08 MB
Hoops.S01E02.1080p.NF.WEB-DL.DDP5.1.x264-EniaHD.mkv663.43 MB
Hoops.S01E03.1080p.NF.WEB-DL.DDP5.1.x264-EniaHD.mkv659.13 MB
Hoops.S01E01.1080p.NF.WEB-DL.DDP5.1.x264-EniaHD.mkv700.59 MB
Hoops.S01E05.1080p.NF.WEB-DL.DDP5.1.x264-EniaHD.mkv742.79 MB
Hoops.S01E06.1080p.NF.WEB-DL.DDP5.1.x264-EniaHD.mkv738.30 MB
Hoops.S01E07.1080p.NF.WEB-DL.DDP5.1.x264-EniaHD.mkv696.80 MB
Hoops.S01E08.1080p.NF.WEB-DL.DDP5.1.x264-EniaHD.mkv771.87 MB
Hoops.S01E09.1080p.NF.WEB-DL.DDP5.1.x264-EniaHD.mkv763.27 MB
Hoops.S01E10.1080p.NF.WEB-DL.DDP5.1.x264-EniaHD.mkv740.31 MB

Отзывы
Зарегистрируйтесь чтобы добавить комментарий.
Загрузите программу
  uTorrent.exe
Обратная связь
Copyleft ©