↑↓torrent.by
Поиск
Логин: Регистрация
Пароль: Восстановить пароль

Michael Jackson - Music Video (1982-1996) WEBRip-HEVC 1080p от Alex A

Скачать michael-jackson-music-video-1982-1996-webrip-hevc-1080p-ot-alex-a.torrent
U Магнитная ссылка Размер: 2.04 GB Раздают: 44 Качают: 25 Добавлен: 2020-08-24 11:57:44
Michael Jackson - Music Video (1982-1996) WEBRip-HEVC 1080p от Alex A

Название: Michael Jackson - Music Video (Custom Remastered)

Страна: США
Жанр:  поп, рок, соул, ритм-н-блюз, фанк, диско
Продолжительность: 01:22:12 (15 x ~6 min)

Описание: Кастомный ремастер музыкальных клипов Майкла Джексона.

Качество: WebRip 1080p
Формат: MKV
Видео кодек: x265@10bit
Аудио кодек: AAC
Видео: 1440x1080, 29,970 fps, HEVC, ~2500 kbps, 10bit
Аудио: Eng, 48 kHz/16-bit, AAC 2.0, ~317 kbps

Автор рипа: Alex_A
[+] Медиаинфо
General
Уникальный идентификатор                 : 261986029182207007195913234761368838263 (0xC518AC822CC9605491DF043E4279A077)
Полное имя                               : D:NFMichael Jackson HD REMASTEREDMichael Jackson Music Video [Custom Remastered] 1080p HEVCMichael Jackson - 1982 -Thriller (Shortened Version)_1080p.HEVC.10bit.mkv
Формат                                   : Matroska
Версия формата                           : Version 4
Размер файла                             : 110 MiB
Продолжительность                        : 3 min 21 s
Общий поток                              : 4 591 kb/s
Дата кодирования                         : UTC 2020-08-21 07:05:01
Программа кодирования                    : mkvmerge v44.0.0 ('Domino') 64-bit
Библиотека кодирования                   : libebml v1.3.10 + libmatroska v1.5.2

Video
Идентификатор                            : 1
Формат                                   : HEVC
Формат/Информация                        : High Efficiency Video Coding
Профиль формата                          : Main 10@L4@Main
Идентификатор кодека                     : V_MPEGH/ISO/HEVC
Продолжительность                        : 3 min 21 s
Битрейт                                  : 4 271 kb/s
Ширина                                   : 1 440 pixels
Высота                                   : 1 080 pixels
Соотношение сторон                       : 4:3
Режим частоты кадров                     : Constant
Частота кадров                           : 29.970 (30000/1001) FPS
Цветовое пространство                    : YUV
Субдискретизация насыщенности            : 4:2:0
Битовая глубина                          : 10 bits
Бит/(Пиксели*Кадры)                      : 0.092
Размер потока                            : 102 MiB (93%)
Заголовок                                : Alex_A
Библиотека кодирования                   : x265 3.2+5-354901970679:[Windows][clang 8.0.1][64 bit] 10bit
Настройки программы                      : cpuid=1111039 / frame-threads=16 / numa-pools=8 / wpp / no-pmode / no-pme / no-psnr / no-ssim / log-level=3 / input-csp=1 / input-res=1440x1080 / interlace=0 / total-frames=0 / level-idc=0 / high-tier=1 / uhd-bd=0 / ref=3 / allow-non-conformance / no-repeat-headers / annexb / no-aud / no-hrd / info / hash=0 / no-temporal-layers / open-gop / min-keyint=30 / keyint=300 / gop-lookahead=0 / bframes=4 / b-adapt=2 / b-pyramid / bframe-bias=0 / rc-lookahead=20 / lookahead-slices=6 / scenecut=40 / radl=0 / no-splice / no-intra-refresh / ctu=64 / min-cu-size=8 / no-rect / no-amp / max-tu-size=32 / tu-inter-depth=1 / tu-intra-depth=1 / limit-tu=0 / rdoq-level=0 / dynamic-rd=0.00 / no-ssim-rd / signhide / no-tskip / nr-intra=0 / nr-inter=0 / no-constrained-intra / strong-intra-smoothing / max-merge=3 / limit-refs=1 / no-limit-modes / me=1 / subme=2 / merange=57 / temporal-mvp / no-frame-dup / no-hme / weightp / no-weightb / no-analyze-src-pics / deblock=-2:-2 / sao / no-sao-non-deblock / rd=3 / selective-sao=4 / early-skip / rskip / no-fast-intra / no-tskip-fast / no-cu-lossless / b-intra / no-splitrd-skip / rdpenalty=0 / psy-rd=2.00 / psy-rdoq=0.00 / no-rd-refine / no-lossless / cbqpoffs=0 / crqpoffs=0 / rc=crf / crf=21.0 / qcomp=0.60 / qpstep=4 / stats-write=0 / stats-read=0 / ipratio=1.40 / pbratio=1.30 / aq-mode=1 / aq-strength=0.00 / cutree / zone-count=0 / no-strict-cbr / qg-size=32 / no-rc-grain / qpmax=69 / qpmin=0 / no-const-vbv / sar=1 / overscan=0 / videoformat=5 / range=0 / colorprim=1 / transfer=1 / colormatrix=1 / chromaloc=0 / display-window=0 / cll=0,0 / min-luma=0 / max-luma=1023 / log2-max-poc-lsb=8 / vui-timing-info / vui-hrd-info / slices=1 / no-opt-qp-pps / no-opt-ref-list-length-pps / no-multi-pass-opt-rps / scenecut-bias=0.05 / no-opt-cu-delta-qp / no-aq-motion / no-hdr / no-hdr-opt / no-dhdr10-opt / no-idr-recovery-sei / analysis-reuse-level=5 / scale-factor=0 / refine-intra=0 / refine-inter=0 / refine-mv=1 / refine-ctu-distortion=0 / no-limit-sao / ctu-info=0 / no-lowpass-dct / refine-analysis-type=0 / copy-pic=1 / max-ausize-factor=1.0 / no-dynamic-refine / no-single-sei / no-hevc-aq / no-svt / no-field / qp-adaptation-range=1.00
Язык                                     : English
Default                                  : Yes
Forced                                   : No
Цветовой диапазон                        : Limited
Основные цвета                           : BT.709
Характеристики трансфера                 : BT.709
Коэффициенты матрицы                     : BT.709

Audio
Идентификатор                            : 2
Формат                                   : AAC LC
Формат/Информация                        : Advanced Audio Codec Low Complexity
Идентификатор кодека                     : A_AAC-2
Продолжительность                        : 3 min 21 s
Битрейт                                  : 317 kb/s
Каналы                                   : 2 channels
Channel layout                           : L R
Частота                                  : 48.0 kHz
Частота кадров                           : 46.875 FPS (1024 SPF)
Метод сжатия                             : Lossy
Размер потока                            : 7.61 MiB (7%)
Язык                                     : English
Default                                  : Yes
Forced                                   : No



Скриншоты:
[+] Всего файлов в раздаче - 15:
Michael Jackson - 1989 - Liberian Girl (Official Video)_1080p.HEVC.10bit.mkv72.54 MB
Michael Jackson - 1989 - Leave Me Alone (Official Video)_1080p.HEVC.10bit.mkv82.69 MB
Michael Jackson - 1992 - Jam (Official Video)_1080p.HEVC.10bit.mkv86.62 MB
Michael Jackson - 1988 - Smooth Criminal (Shortened Version)_1080p.HEVC.10bit.mkv90.89 MB
Michael Jackson - 1982 -Thriller (Shortened Version)_1080p.HEVC.10bit.mkv110.02 MB
Michael Jackson - 1995 - Scream (with Janet Jackson) (Official Video)_1080p.HEVC.10bit.mkv111.32 MB
Michael Jackson - 1987 - Bad (Shortened Version)_1080p.HEVC.10bit.mkv114.78 MB
Michael Jackson - 1992 - Remember The Time (Official Video)_1080p.HEVC.10bit.mkv142.19 MB
Michael Jackson - 1983 - Billie Jean (Official Video)_1080p.HEVC.10bit.mkv156.23 MB
Michael Jackson - 1995 - Earth Song (Official Video)_1080p.HEVC.10bit.mkv157.75 MB
Michael Jackson - 1992 - In the Closet (Official Video)_1080p.HEVC.10bit.mkv161.56 MB
Michael Jackson - 1983 - Beat It (Official Video)_1080p.HEVC.10bit.mkv182.13 MB
Michael Jackson - 1995 - You Are Not Alone (Official Video)_1080p.HEVC.10bit.mkv209.78 MB
Michael Jackson - 1991 - Black Or White (Shortened Version)_1080p.HEVC.10bit.mkv289.92 MB

Показать еще раздачи по запросу michael:
Вчера U George Michael - Essentials (2020) FLAC 862.58 MB ↑ 26 ↓ 8
Вчера U George Michael - Essentials (2020) MP3 308.69 MB ↑ 30 ↓ 3
2020-06-08 U Michael Jackson - Part Of The Experience Mashup (2020) MP3 184.93 MB ↑ 63 ↓ 6
2020-06-08 U Michael Jackson - Rhythms Experience Dreams Mashup (2020) MP3 184.16 MB ↑ 57 ↓ 12
2020-05-30 U Michael Bolton - Michael Bolton: Greatest Hits (2020) MP3 210.08 MB ↑ 126 ↓ 4
2020-04-08 U Michael Jackson - 100% Michael Jackson (2020) MP3 502.85 MB ↑ 204 ↓ 18
2019-12-19 U Michael Jackson - Ultimate Remix Collection (2019) MP3 1К448.81 MB ↑ 229 ↓ 38

Отзывы
Зарегистрируйтесь чтобы добавить комментарий.
Загрузите программу
  uTorrent.exe
Обратная связь
Copyleft ©