↑↓torrent.by
Поиск
Логин: Регистрация
Пароль: Восстановить пароль

Принцесса Лебедь: Королевская свадьба / The Swan Princess: A Royal Wedding (2020) WEB-DL 1080p от селезень | iTunes

Скачать princessa-lebed-korolevskaya-svadba-the-swan-princess-a-royal-wedding-2020-web-dl-1080p-ot-selezen-itunes.torrent
U Магнитная ссылка Размер: 3.47 GB Раздают: 69 Качают: 20 Добавлен: 2020-08-25 07:14:10
Принцесса Лебедь: Королевская свадьба / The Swan Princess: A Royal Wedding (2020) WEB-DL 1080p от селезень | iTunes

Название: Принцесса Лебедь: Королевская свадьба
Оригинальное название: The Swan Princess: A Royal Wedding
Год выхода: 2020
Жанр: Мультфильм
Режиссер: Ричард Рич
В ролях: Александр Чен, Нина Херцог, Гарднер Джаэс, Юрий Ловенталь, Стефани Ше, Йи Лин

О фильме: Действие сказки переносится в загадочные, полные древней магии земли Китая. Очаровательная Мэй Ли собирается выйти за своего возлюбленного – прекрасного юношу Чэна. На пышную церемонию приглашены представители разных королевств. Среди них и наши герои – Одетта с Дереком. Однако счастливые планы влюблённых нарушает злая колдунья Фэн, задумавшая сама стать женой Чэна. Для этого она подстерегла бедную Мэй Ли в лесу и с помощью злых чар превратила её в старушку. Сама же приняла облик принцессы. Но Одетта, узнавшая о злых намерениях колдуньи, хочет помешать ей реализовать коварный план. В этом ей помогут её верные друзья и любимый Дерек. Но смогут ли смелые герои разрушить тёмную магию злой колдуньи Фэн?

Страна: США
Студия: Sony Wonder
Продолжительность: 01:22:17
Перевод: Профессиональный многоголосый | iTunes

Качество: WEB-DL 1080p
Видео: MPEG-4 AVC, 1920x1080, 5266 Kbit/s, 23.976 fps
Аудио #01: 48 kHz, AC3, 5.1, 384 Kbps | iTunes | RUS |
Аудио #02: 48 kHz, AC3, 5.1, 384 Kbps | Оригинал | ENG |
Субтитры: Русские (Forced, full), украинские (Full), английские

Релиз: Присоединяйся к:


[+] MI
General
Unique ID                   : 130391506535385180535049702980599858066 (0x62187D9E0EE40664A0B1D93CCA6AC392)
Complete name               : D:Video111Swan.Princess.A.Royal.Wedding.2020.WEB-DL.1080p.seleZen.mkv
Format                      : Matroska
Format version              : Version 4
File size                   : 3.47 GiB
Duration                    : 1 h 22 min
Overall bit rate            : 6 036 kb/s
Movie name                  : Swan Princess A Royal Wedding 2020 from селезень
Encoded date                : UTC 2020-08-24 09:43:00
Writing application         : mkvmerge v40.0.0 ('Old Town Road + Pony') 64-bit
Writing library             : libebml v1.3.9 + libmatroska v1.5.2

Video
ID                          : 1
Format                      : AVC
Format/Info                 : Advanced Video Codec
Format profile              : High@L4
Format settings             : CABAC / 2 Ref Frames
Format settings, CABAC      : Yes
Format settings, Reference  : 2 frames
Codec ID                    : V_MPEG4/ISO/AVC
Duration                    : 1 h 22 min
Bit rate                    : 5 266 kb/s
Width                       : 1 920 pixels
Height                      : 1 080 pixels
Display aspect ratio        : 16:9
Frame rate mode             : Constant
Frame rate                  : 23.976 (24000/1001) FPS
Color space                 : YUV
Chroma subsampling          : 4:2:0
Bit depth                   : 8 bits
Scan type                   : Progressive
Bits/(Pixel*Frame)          : 0.106
Stream size                 : 3.03 GiB (87%)
Writing library             : x264 core 155 r2901 7d0ff22
Language                    : English
Default                     : Yes
Forced                      : No
Color range                 : Limited
Color primaries             : BT.709
Transfer characteristics    : BT.709
Matrix coefficients         : BT.709

Audio #1
ID                          : 2
Format                      : AC-3
Format/Info                 : Audio Coding 3
Commercial name             : Dolby Digital
Codec ID                    : A_AC3
Duration                    : 1 h 22 min
Bit rate mode               : Constant
Bit rate                    : 384 kb/s
Channel(s)                  : 6 channels
Channel layout              : L R C LFE Ls Rs
Sampling rate               : 48.0 kHz
Frame rate                  : 31.250 FPS (1536 SPF)
Compression mode            : Lossy
Stream size                 : 226 MiB (6%)
Title                       : iTunes
Language                    : Russian
Service kind                : Complete Main
Default                     : Yes
Forced                      : Yes

Audio #2
ID                          : 3
Format                      : AC-3
Format/Info                 : Audio Coding 3
Commercial name             : Dolby Digital
Codec ID                    : A_AC3
Duration                    : 1 h 22 min
Bit rate mode               : Constant
Bit rate                    : 384 kb/s
Channel(s)                  : 6 channels
Channel layout              : L R C LFE Ls Rs
Sampling rate               : 48.0 kHz
Frame rate                  : 31.250 FPS (1536 SPF)
Compression mode            : Lossy
Stream size                 : 226 MiB (6%)
Title                       : Original
Language                    : English
Service kind                : Complete Main
Default                     : No
Forced                      : No

Text #1
ID                          : 4
Format                      : UTF-8
Codec ID                    : S_TEXT/UTF8
Codec ID/Info               : UTF-8 Plain Text
Duration                    : 1 h 6 min
Bit rate                    : 2 b/s
Count of elements           : 33
Stream size                 : 1.40 KiB (0%)
Title                       : Forced
Language                    : Russian
Default                     : Yes
Forced                      : Yes

Text #2
ID                          : 5
Format                      : UTF-8
Codec ID                    : S_TEXT/UTF8
Codec ID/Info               : UTF-8 Plain Text
Duration                    : 1 h 21 min
Bit rate                    : 81 b/s
Count of elements           : 997
Stream size                 : 48.9 KiB (0%)
Title                       : Full
Language                    : Russian
Default                     : No
Forced                      : No

Text #3
ID                          : 6
Format                      : UTF-8
Codec ID                    : S_TEXT/UTF8
Codec ID/Info               : UTF-8 Plain Text
Duration                    : 1 h 21 min
Bit rate                    : 79 b/s
Count of elements           : 995
Stream size                 : 47.7 KiB (0%)
Title                       : Full
Language                    : Ukrainian
Default                     : No
Forced                      : No

Text #4
ID                          : 7
Format                      : UTF-8
Codec ID                    : S_TEXT/UTF8
Codec ID/Info               : UTF-8 Plain Text
Duration                    : 1 h 21 min
Bit rate                    : 43 b/s
Count of elements           : 995
Stream size                 : 26.1 KiB (0%)
Title                       : Full
Language                    : English
Default                     : No
Forced                      : No

Menu
00:00:00.000                : en:1
00:05:53.144                : en:2
00:11:38.239                : en:3
00:17:30.340                : en:4
00:23:27.697                : en:5
00:29:32.894                : en:6
00:36:24.305                : en:7
00:42:54.027                : en:8
00:47:37.518                : en:9
00:51:40.719                : en:10
00:58:07.188                : en:11
01:04:30.320                : en:12
01:09:56.396                : en:13
01:14:38.885                : en:14
01:20:10.007                : en:15
01:26:56.412                : en:16



Скриншоты:
[+] Всего файлов в раздаче - 1:
Swan.Princess.A.Royal.Wedding.2020.WEB-DL.1080p.seleZen.mkv3.47 GB

Похожие раздачи по запросу - принцесса:
2020-07-03 U Принцесса Мононоке / Mononoke-hime (1997) BDRip 720p 4.37 GB ↑ 75 ↓ 10
2020-06-30 U Принцесса и дракон: Тайна волшебного зеркала (2018) WEBRip 1.34 GB ↑ 34 ↓ 8
2020-05-07 U Испанская принцесса / The Spanish Princess [S01] (2019) HDRip | Amedia 6.27 GB ↑ 158 ↓ 120
2020-02-22 U Ледяная принцесса / Tabaluga / Ice Princess Lily (2018) BDRip 720p от ELEKTRI4KA | iTunes 3.57 GB ↑ 177 ↓ 19
2020-02-22 U Ледяная принцесса / Tabaluga / Ice Princess Lily (2018) HDRip от ELEKTRI4KA | iTunes 1.37 GB ↑ 250 ↓ 67
2018-01-31 U Три богатыря и принцесса Египта (2017) WEB-DLRip-AVC от Generalfilm | iTunes 1.03 GB ↑ 560 ↓ 91

Отзывы
Зарегистрируйтесь чтобы добавить комментарий.
Загрузите программу
  uTorrent.exe
Обратная связь
Copyleft ©