↑↓torrent.by
Поиск
Логин: Регистрация
Пароль: Восстановить пароль

Айван, единственный и неповторимый / The One and Only Ivan (2020) WEB-DL 1080p | HDRezka Studio

Скачать ayvan-edinstvennyy-i-nepovtorimyy-the-one-and-only-ivan-2020-web-dl-1080p-hdrezka-studio.torrent
U Магнитная ссылка Размер: 6.12 GB Раздают: 362 Качают: 176 Добавлен: 2020-08-25 20:33:40
Айван, единственный и неповторимый / The One and Only Ivan (2020) WEB-DL 1080p | HDRezka Studio

Название: Айван, единственный и неповторимый
Оригинальное название: The One and Only Ivan
Год выхода: 2020
Жанр: Мультфильм, фэнтези, драма, комедия, приключения, семейный
Режиссер: Теа Шэррок
В ролях: Сэм Рокуэлл, Анджелина Джоли, Дэнни ДеВито, Хелен Миррен, Бруклин Принс, Рамон Родригес, Ариана Гринблатт, Филлипа Су, Элинор Мацуура, Брайан Крэнстон

О фильме:
Горилла по имени Айван был разлучен с семьей в раннем детстве и уже давно забыл, как выглядел его настоящий дом, далеко в джунглях. Но все меняется, когда новым обитателем зверинца становится слоненок по имени Руби, заставив Айвана вспомнить о том, откуда он родом, и задуматься о том, где он может быть по-настоящему счастлив.

Страна: США
Студия: Allison Shearmur Productions, Digital Makeup Group, Jolie Pas Productions, Walt Disney Pictures
Продолжительность: 01:33:29
Перевод: Профессиональный многоголосый | HDRezka Studio

Файл
Кодек: AVC
Качество: WEB-DL 1080p | The.One.and.Only.Ivan.2020.1080p.WEB.H264-METCON
Видео: MPEG-4 AVC, 8476 Kбит/с, 1920x1080, 23.976 кадр/с
Аудио #1: Русский (АС3, 6 ch, 448 Кбит/с, 48.0 KHz) Профессиональный (многоголосый, закадровый) HDRezka Studio
Аудио #2: Английский (АС3, 6 ch, 448 Кбит/с, 48.0 KHz)
Субтитры: Русские (Forced), английские, испанские, французские, немецкие, итальянские, португальские
► Без Рекламы!
Трейлер




[+] MediaInfo
Источник: The.One.and.Only.Ivan.2020.1080p.WEB.H264-METCON
General
Unique ID                      : 207326660804358376995109793048619513981 (0x9BF9A99518E2F4A9A5FDA7458871F87D)
Complete name                  : The.One.and.Only.Ivan.2020.WEB-DL.1080p.mkv
Format                         : Matroska
Format version                 : Version 4
File size                      : 6.12 GiB
Duration                       : 1 h 33 min
Overall bit rate mode          : Variable
Overall bit rate               : 9 375 kb/s
Encoded date                   : UTC 2020-08-25 12:34:59
Writing application            : mkvmerge v7.1.0 ('Good Love') 64bit built on Jul 27 2014 13:06:55
Writing library                : libebml v1.3.0 + libmatroska v1.4.1

Video
ID                             : 1
Format                         : AVC
Format/Info                    : Advanced Video Codec
Format profile                 : High@L4
Format settings                : CABAC / 4 Ref Frames
Format settings, CABAC         : Yes
Format settings, Reference fra : 4 frames
Codec ID                       : V_MPEG4/ISO/AVC
Duration                       : 1 h 33 min
Bit rate mode                  : Variable
Bit rate                       : 8 476 kb/s
Maximum bit rate               : 12.7 Mb/s
Width                          : 1 920 pixels
Height                         : 1 080 pixels
Display aspect ratio           : 16:9
Frame rate mode                : Constant
Frame rate                     : 23.976 (24000/1001) FPS
Color space                    : YUV
Chroma subsampling             : 4:2:0
Bit depth                      : 8 bits
Scan type                      : Progressive
Bits/(Pixel*Frame)             : 0.170
Stream size                    : 5.54 GiB (90%)
Language                       : English
Default                        : Yes
Forced                         : No
Color range                    : Limited
Color primaries                : BT.709
Transfer characteristics       : BT.709
Matrix coefficients            : BT.709

Audio #1
ID                             : 2
Format                         : AC-3
Format/Info                    : Audio Coding 3
Commercial name                : Dolby Digital
Codec ID                       : A_AC3
Duration                       : 1 h 33 min
Bit rate mode                  : Constant
Bit rate                       : 448 kb/s
Channel(s)                     : 6 channels
Channel layout                 : L R C LFE Ls Rs
Sampling rate                  : 48.0 kHz
Frame rate                     : 31.250 FPS (1536 SPF)
Compression mode               : Lossy
Stream size                    : 300 MiB (5%)
Title                          : MVO | HDRezka Studio
Language                       : Russian
Service kind                   : Complete Main
Default                        : Yes
Forced                         : No

Audio #2
ID                             : 3
Format                         : AC-3
Format/Info                    : Audio Coding 3
Commercial name                : Dolby Digital
Codec ID                       : A_AC3
Duration                       : 1 h 33 min
Bit rate mode                  : Constant
Bit rate                       : 448 kb/s
Channel(s)                     : 6 channels
Channel layout                 : L R C LFE Ls Rs
Sampling rate                  : 48.0 kHz
Frame rate                     : 31.250 FPS (1536 SPF)
Compression mode               : Lossy
Stream size                    : 300 MiB (5%)
Language                       : English
Service kind                   : Complete Main
Default                        : No
Forced                         : No

Text #1
ID                             : 4
Format                         : UTF-8
Codec ID                       : S_TEXT/UTF8
Codec ID/Info                  : UTF-8 Plain Text
Duration                       : 1 h 26 min
Bit rate                       : 2 b/s
Count of elements              : 20
Stream size                    : 1.62 KiB (0%)
Language                       : Russian
Default                        : Yes
Forced                         : No

Text #2
ID                             : 5
Format                         : UTF-8
Codec ID                       : S_TEXT/UTF8
Codec ID/Info                  : UTF-8 Plain Text
Duration                       : 1 h 28 min
Bit rate                       : 61 b/s
Count of elements              : 1367
Stream size                    : 39.6 KiB (0%)
Title                          : English [CC]
Language                       : English
Default                        : No
Forced                         : No

Text #3
ID                             : 6
Format                         : UTF-8
Codec ID                       : S_TEXT/UTF8
Codec ID/Info                  : UTF-8 Plain Text
Duration                       : 1 h 28 min
Bit rate                       : 52 b/s
Count of elements              : 1140
Stream size                    : 34.2 KiB (0%)
Title                          : Deutsch
Language                       : German
Default                        : No
Forced                         : No

Text #4
ID                             : 7
Format                         : UTF-8
Codec ID                       : S_TEXT/UTF8
Codec ID/Info                  : UTF-8 Plain Text
Duration                       : 1 h 28 min
Bit rate                       : 56 b/s
Count of elements              : 1194
Stream size                    : 36.7 KiB (0%)
Title                          : Français
Language                       : French
Default                        : No
Forced                         : No

Text #5
ID                             : 8
Format                         : UTF-8
Codec ID                       : S_TEXT/UTF8
Codec ID/Info                  : UTF-8 Plain Text
Duration                       : 1 h 28 min
Bit rate                       : 50 b/s
Count of elements              : 1191
Stream size                    : 32.5 KiB (0%)
Title                          : Español
Language                       : Spanish
Default                        : No
Forced                         : No

Text #6
ID                             : 9
Format                         : UTF-8
Codec ID                       : S_TEXT/UTF8
Codec ID/Info                  : UTF-8 Plain Text
Duration                       : 1 h 28 min
Bit rate                       : 55 b/s
Count of elements              : 1198
Stream size                    : 35.6 KiB (0%)
Title                          : Italiano
Language                       : Italian
Default                        : No
Forced                         : No

Text #7
ID                             : 10
Format                         : UTF-8
Codec ID                       : S_TEXT/UTF8
Codec ID/Info                  : UTF-8 Plain Text
Duration                       : 1 h 28 min
Bit rate                       : 54 b/s
Count of elements              : 1197
Stream size                    : 35.3 KiB (0%)
Title                          : Português
Language                       : Portuguese
Default                        : No
Forced                         : No



Скриншоты:
[+] Всего файлов в раздаче - 1:
The.One.and.Only.Ivan.2020.WEB-DL.1080p.mkv6.12 GB

Похожие раздачи по запросу - айван:
2020-08-25 U Айван, единственный и неповторимый / The One and Only Ivan (2020) WEB DLRip | HDRezka Studio 1.47 GB ↑ 322 ↓ 66

Отзывы
Зарегистрируйтесь чтобы добавить комментарий.
Загрузите программу
  uTorrent.exe
Обратная связь
Copyleft ©