↑↓torrent.by
Поиск
Логин: Регистрация
Пароль: Восстановить пароль

Веники еловые [01-02 из 02] (2015-2016) WEB-DL 1080p от ExKinoRay

Скачать veniki-elovye-01-02-iz-2015-2016-web-dl-1080p-ot-exkinoray.torrent
U Магнитная ссылка Размер: 1.94 GB Раздают: 16 Качают: 9 Добавлен: 2020-08-27 05:30:30
Веники еловые [01-02 из 02] (2015-2016) WEB-DL 1080p от ExKinoRay

Оригинальное название: Веники еловые
Год выпуска: 2015-2016
Жанр:  Мультсериал, детский, рисованный, экранизация
Режиссер: Елена Хрусталева
Режиссер: Александр Берг, Елена Хрусталева, Дмитрий Гудим, Ирина Шарова, Игорь Ламба, Андрей Акимов

О фильме: Добрый и веселый мультфильм для всей семьи, основанный на книге российской писательницы и художника Екатерины Матюшкиной «Веники еловые, или Приключения Вани в лаптях и сарафане». Темной ночью Баба-яга колдует в своей избушке на курьих ножках да приговаривает: «Кипи-кипи вода ледяная, варись-варись трава луговая…». Решила она наколдовать себе сегодня самое дорогое сокровище. Осталось подождать совсем чуть-чуть: как только наступит полночь, и в небе зажгутся три звезды – волшебство окутает лес! Но сокровище еще нужно отыскать, для этого Баба-яга вместе со своей метлой-помощницей отправляются в капустное поле. Там в одном из кочанов они находят… маленькую девочку, да какую хорошенькую! Будет теперь у старушки внучка-помощница Ваня, и заживут они все вместе по-новому и по-доброму! Все жители леса радуются появлению Вани, даже избушка на курьих ножках снесла яйцо. Это яйцо не простое, а волшебное – вырастить из него можно все, что хочешь!

Выпущено: Россия, Студия документальных фильмов
Продолжительность: 2 x ~ 00:26:10
Язык: Русский

Формат: MKV
Качество: WEB-DL 1080p
Видео: MPEG-4 AVC, ~ 5000 Kbps, 1920x1080 (16:9), 25.000 fps
Аудио: AC3, 2.0, 192 Kbps

Релиз:

Автор релиза:
[+] ОтчетМедиаИнфо


General
Unique ID                                : 245936894768022909232769281923453925268 (0xB905B916F172B2799761E64BEA59B794)
Complete name                            : F:Веники.еловые.2015-2016.WEB-DL.1080p.ExKinoRayВеники.еловые.01.WEB-DL.1080p.ExKinoRay.mkv
Format                                   : Matroska
Format version                           : Version 2
File size                                : 1 000 MiB
Duration                                 : 26 min
Overall bit rate                         : 5 285 kb/s
Encoded date                             : UTC 2020-08-25 01:24:38
Writing application                      : mkvmerge v5.8.0 ('No Sleep / Pillow') built on Sep  2 2012 15:37:04
Writing library                          : libebml v1.2.3 + libmatroska v1.3.0

Video
ID                                       : 1
Format                                   : AVC
Format/Info                              : Advanced Video Codec
Format profile                           : High@L4
Format settings, CABAC                   : Yes
Format settings, ReFrames                : 4 frames
Codec ID                                 : V_MPEG4/ISO/AVC
Duration                                 : 26 min
Bit rate                                 : 4 988 kb/s
Width                                    : 1 920 pixels
Height                                   : 1 080 pixels
Display aspect ratio                     : 16:9
Frame rate mode                          : Constant
Frame rate                               : 25.000 FPS
Color space                              : YUV
Chroma subsampling                       : 4:2:0
Bit depth                                : 8 bits
Scan type                                : Progressive
Bits/(Pixel*Frame)                       : 0.096
Stream size                              : 944 MiB (94%)
Language                                 : Russian
Default                                  : Yes
Forced                                   : No

Audio
ID                                       : 2
Format                                   : AC-3
Format/Info                              : Audio Coding 3
Mode extension                           : CM (complete main)
Format settings, Endianness              : Big
Codec ID                                 : A_AC3
Duration                                 : 26 min
Bit rate mode                            : Constant
Bit rate                                 : 192 kb/s
Channel(s)                               : 2 channels
Channel positions                        : Front: L R
Sampling rate                            : 48.0 kHz
Frame rate                               : 31.250 FPS (1536 spf)
Compression mode                         : Lossy
Stream size                              : 36.3 MiB (4%)
Language                                 : Russian
Default                                  : Yes
Forced                                   : No




Скриншоты:
[+] Всего файлов в раздаче - 2:
Веники.еловые.01.WEB-DL.1080p.ExKinoRay.mkv1,000.49 MB
Веники.еловые.02.WEB-DL.1080p.ExKinoRay.mkv989.72 MB

Отзывы
Зарегистрируйтесь чтобы добавить комментарий.
Загрузите программу
  uTorrent.exe
Обратная связь
Copyleft ©