↑↓torrent.by
Поиск
Логин: Регистрация
Пароль: Восстановить пароль

Шугалей 2 (2020) HDTVRip-AVC от Files-x

Скачать shugaley-2-2020-hdtvrip-avc-ot-files-x.torrent
U Магнитная ссылка Размер: 2.05 GB Раздают: 94 Качают: 45 Добавлен: 2020-09-07 07:58:11
Шугалей 2 (2020) HDTVRip-AVC от Files-x

Оригинальное название: Шугалей 2
Год выпуска: 2020
Жанр:  Боевик, приключения
Режиссер: Максим Бриус
В ролях: Кирилл Полухин, Олег Абалян, Сергей Яценюк

Описание: Российский социолог Максим Шугалей и его коллега-переводчик Самер Суэйфан до сих пор содержатся в ливийской тюрьме. Уже больше года они ежедневно подвергаются пыткам и психологическому насилию. Находясь в заключении, Максим Шугалей сталкивается с разными людьми, которые оказываются, иногда неосознанно, источниками информации о ситуации в Триполи. Слушая их истории, социолог буквально по крупицам собирает ценную информацию, которая может стать решающей для всего мирового сообщества.

Выпущено: Россия, ООО «Триикс Медия»
Продолжительность: 01:59:45
Язык: Русский

Файл
Кодек: h.264
Качество: HDTVRip-AVC
Видео: MPEG-4 AVC, ~ 2275 Кбит/с, 1024x432, 25 кадр/с
Аудио: AC3, 2 ch, 192 Кбит/с
Язык: Русский

Релиз:


[+] Инфо-файл

General
Unique ID                                : 213372551082718355693783510051443849262 (0xA0860EFCBE2D286BAE35AFF90DD6382E)
Complete name                            : F:Shugalei-2.(2020).HDTVRip.(AVC).by.Серый1779.Files-x.mkv
Format                                   : Matroska
Format version                           : Version 2
File size                                : 2.05 GiB
Duration                                 : 1 h 59 min
Overall bit rate                         : 2 468 kb/s
Encoded date                             : UTC 2020-09-06 23:35:20
Writing application                      : mkvmerge v7.8.0 ('River Man') 32bit built on Apr  3 2015 12:11:22
Writing library                          : libebml v1.3.1 + libmatroska v1.4.2

Video
ID                                       : 1
Format                                   : AVC
Format/Info                              : Advanced Video Codec
Format profile                           : High@L4.1
Format settings                          : CABAC / 9 Ref Frames
Format settings, CABAC                   : Yes
Format settings, RefFrames               : 9 frames
Codec ID                                 : V_MPEG4/ISO/AVC
Duration                                 : 1 h 59 min
Bit rate                                 : 2 275 kb/s
Width                                    : 1 024 pixels
Height                                   : 432 pixels
Display aspect ratio                     : 2.40:1
Frame rate mode                          : Constant
Frame rate                               : 25.000 FPS
Color space                              : YUV
Chroma subsampling                       : 4:2:0
Bit depth                                : 8 bits
Scan type                                : Progressive
Bits/(Pixel*Frame)                       : 0.206
Stream size                              : 1.85 GiB (90%)
Writing library                          : x264 core 146 r2538 121396c
Encoding settings                        : cabac=1 / ref=9 / deblock=1:-2:-1 / analyse=0x3:0x133 / me=umh / subme=9 / psy=1 / psy_rd=1.00:0.15 / mixed_ref=1 / me_range=32 / chroma_me=1 / trellis=2 / 8x8dct=1 / cqm=0 / deadzone=21,11 / fast_pskip=0 / chroma_qp_offset=-3 / threads=18 / lookahead_threads=3 / sliced_threads=0 / nr=0 / decimate=1 / interlaced=0 / bluray_compat=0 / constrained_intra=0 / bframes=9 / b_pyramid=2 / b_adapt=2 / b_bias=0 / direct=3 / weightb=1 / open_gop=0 / weightp=2 / keyint=250 / keyint_min=25 / scenecut=40 / intra_refresh=0 / rc=2pass / mbtree=0 / bitrate=2275 / ratetol=1.0 / qcomp=0.60 / qpmin=0 / qpmax=69 / qpstep=4 / cplxblur=20.0 / qblur=0.5 / ip_ratio=1.40 / pb_ratio=1.30 / aq=2:1.00
Default                                  : Yes
Forced                                   : No
Color range                              : Limited
Color primaries                          : BT.709
Transfer characteristics                 : BT.709
Matrix coefficients                      : BT.709

Audio
ID                                       : 2
Format                                   : AC-3
Format/Info                              : Audio Coding 3
Format settings, Endianness              : Big
Codec ID                                 : A_AC3
Duration                                 : 1 h 59 min
Bit rate mode                            : Constant
Bit rate                                 : 192 kb/s
Channel(s)                               : 2 channels
Channel positions                        : Front: L R
Sampling rate                            : 48.0 kHz
Frame rate                               : 31.250 FPS (1536 SPF)
Bit depth                                : 16 bits
Compression mode                         : Lossy
Stream size                              : 164 MiB (8%)
Service kind                             : Complete Main
Default                                  : Yes
Forced                                   : No




Скриншоты:
[+] Всего файлов в раздаче - 1:
Shugalei-2.(2020).HDTVRip.(AVC).by.Серый1779.Files-x.mkv2.05 GB

Показать еще раздачи по запросу шугалей:
2020-09-21 U Шугалей 2 (2020) WEB-DLRip-AVC 2.18 GB ↑ 24 ↓ 4
2020-09-21 U Шугалей 2 (2020) WEB-DLRip от GeneralFilm 1.46 GB ↑ 26 ↓ 7
2020-09-19 U Шугалей 2 (2020) WEB-DLRip от ELEKTRI4KA | IVI 1.47 GB ↑ 95 ↓ 47
2020-09-19 U Шугалей 2 (2020) WEB-DL 1080p от ExKinoRay 4.61 GB ↑ 131 ↓ 58
2020-09-09 U Шугалей 2 (2020) HDTVRip-AVC от ExKinoRay 745.65 MB ↑ 57 ↓ 16
2020-09-08 U Шугалей 2 (2020) HDTVRip от ExKinoRay 747.37 MB ↑ 51 ↓ 29
2020-09-07 U Шугалей 2 (2020) HDTVRip от Files-x 1.46 GB ↑ 143 ↓ 52

Отзывы
Зарегистрируйтесь чтобы добавить комментарий.
Загрузите программу
  uTorrent.exe
Обратная связь
Copyleft ©