↑↓torrent.by
Поиск
Логин: Регистрация
Пароль: Восстановить пароль

Человек, который удивил всех (2018) WEB-DL 1080p от ExKinoRay

Скачать chelovek-kotoryy-udivil-vseh-2018-web-dl-1080p-ot-exkinoray.torrent
U Магнитная ссылка Размер: 3.99 GB Раздают: 66 Качают: 22 Добавлен: 2020-09-09 06:10:06
Человек, который удивил всех (2018) WEB-DL 1080p от ExKinoRay

Название: Человек, который удивил всех
Год выхода: 2018
Жанр: Драма
Режиссер: Наталья Меркулова, Алексей Чупов
В ролях: Евгений Цыганов, Наталья Кудряшова (I), Юрий Кузнецов, Павел Майков, Василий Попов, Алексей Филимонов, Елена Ворончихина, Максим Виторган, Амаду Мамадаков, Тимофей Зайцев

О фильме:
Сибирский егерь Егор — образцовый семьянин и уважаемый в своем поселке человек. Они с женой Натальей ждут второго ребенка. Неожиданно Егор узнает, что неизлечимо болен, и что жить ему осталось два месяца. В борьбе с болезнью не помогают ни традиционная медицина, ни шаманское колдовство, и в конце концов Егор решается на отчаянный шаг — пытается полностью изменить свою личность, чтобы обмануть приближающуюся смерть, как это сделал легендарный селезень Жамба, герой древнего сибирского эпоса.

Страна: Россия, Эстония, Франция
Студия: Нон-стоп Продакшн
Продолжительность: 01:44:08
Язык: Русский

Файл
Кодек: MPEG-4 AVC
Качество: WEB-DL 1080p
Видео: MPEG-4 AVC, ~ 5000 Кбит/с, 1920x800
Звук: AC3, 6 ch, 384 Кбит/с

Релиз:

Реклама, любого вида, отсутствует.


[+] Инфо-файл
Chelovek.kotoriy.udivil.vseh.2018.WEB-DL.(1080p).ExKinoRay.mkv
Format                      : Matroska
Format version              : Version 2
File size                   : 3.99 GiB
Duration                    : 1 h 44 min
Overall bit rate            : 5 490 kb/s
Encoded date                : UTC 2020-09-07 22:26:16
Writing application         : mkvmerge v5.8.0 ('No Sleep / Pillow') built on Sep  2 2012 15:37:04
Writing library             : libebml v1.2.3 + libmatroska v1.3.0

Video
ID                          : 1
Format                      : AVC
Format/Info                 : Advanced Video Codec
Format profile              : High@L4
Format settings             : CABAC / 4 Ref Frames
Format settings, CABAC      : Yes
Format settings, Reference  : 4 frames
Codec ID                    : V_MPEG4/ISO/AVC
Duration                    : 1 h 44 min
Bit rate                    : 4 996 kb/s
Width                       : 1 920 pixels
Height                      : 800 pixels
Display aspect ratio        : 2.40:1
Frame rate mode             : Constant
Frame rate                  : 24.000 FPS
Color space                 : YUV
Chroma subsampling          : 4:2:0
Bit depth                   : 8 bits
Scan type                   : Progressive
Bits/(Pixel*Frame)          : 0.136
Stream size                 : 3.63 GiB (91%)
Language                    : Russian
Default                     : Yes
Forced                      : No

Audio
ID                          : 2
Format                      : AC-3
Format/Info                 : Audio Coding 3
Commercial name             : Dolby Digital
Codec ID                    : A_AC3
Duration                    : 1 h 44 min
Bit rate mode               : Constant
Bit rate                    : 384 kb/s
Channel(s)                  : 6 channels
Channel layout              : L R C LFE Ls Rs
Sampling rate               : 48.0 kHz
Frame rate                  : 31.250 FPS (1536 SPF)
Compression mode            : Lossy
Stream size                 : 286 MiB (7%)
Language                    : Russian
Service kind                : Complete Main
Default                     : Yes
Forced                      : No




Скриншоты:
[+] Всего файлов в раздаче - 1:
Chelovek.kotoriy.udivil.vseh.2018.WEB-DL.(1080p).ExKinoRay.mkv3.99 GB

Показать еще раздачи по запросу человек:
2020-09-06 U Джо / Занятой человек / Jo (1971) WEB-DL 1080p | L1 4.95 GB ↑ 46 ↓ 19
2020-08-28 U Хороший человек [01-02 из 09] (2020) WEBRip 720p от ExKinoRay 2.69 GB ↑ 47 ↓ 26
2020-08-28 U Хороший человек [01-02 из 09] (2020) WEBRip-AVC от Files-x 1.30 GB ↑ 48 ↓ 45
2020-08-25 U Супермен: Человек завтрашнего дня / Superman: Man of Tomorrow (2020) WEB-DLRip от NewComers | P 1.16 GB ↑ 66 ↓ 26
2020-08-25 U Супермен: Человек завтрашнего дня / Superman: Man of Tomorrow (2020) WEB-DL 1080p от NewComers | P 3.53 GB ↑ 50 ↓ 16
2020-08-22 U Хороший человек [01 из 09] (2020) WEBRip 720p от ExKinoRay 1.43 GB ↑ 87 ↓ 19
2020-08-21 U Хороший человек [01 из 09] (2020) WEBRip от Files-x 714.34 MB ↑ 77 ↓ 13

Отзывы
Зарегистрируйтесь чтобы добавить комментарий.
Загрузите программу
  uTorrent.exe
Обратная связь
Copyleft ©