↑↓torrent.by
Поиск
Логин: Регистрация
Пароль: Восстановить пароль

Номер один (2020) WEBRip-AVC от ExKinoRay

Скачать nomer-odin-2020-webrip-avc-ot-exkinoray.torrent
U Магнитная ссылка Размер: 1.25 GB Раздают: 50 Качают: 23 Добавлен: 2020-09-09 06:10:44
Номер один (2020) WEBRip-AVC от ExKinoRay

Название: Номер один
Год выхода: 2020
Жанр:  Комедия
Режиссер: Михаил Расходников
В ролях: Филипп Янковский, Дмитрий Власкин, Ксения Собчак, Рина Гришина, Николай Шрайбер, Мария Лобанова, Андрей Федорцов, Игорь Миркурбанов, Марина Ермошкина и др.

О фильме:
Молодой авантюрист Артем встречает некогда легендарного похитителя предметов искусства Феликса. Вместе с непревзойденным представителем «старой школы» герой решает провернуть аферу века и украсть одну из самых дорогих картин современности — «№ 1» Марка Ротко. Шедевр хранится в галерее, принадлежащей бывшей жене Феликса и ее новому мужу. Между делом, Артем влюбляется в девушку по имени Марина, которая оказывается следователем и мечтает поймать Феликса с поличным.

Страна: Россия
Студия: "М продакшн", "Реновацио"
Продолжительность: 01:32:22
Язык: Русский

Файл
Формат: MKV
Качество: WEBRip-AVC
Видео: MPEG-4 AVC, 1024x428, 1750 Кбит/с
Аудио:  AC3, 2 ch, 192 Кбит/сек
Субтитры: Нет


[+] MI
Общее
Уникальный идентификатор : 303598126282960454408625150959285624842 (0xE466DF4B9152AE0255611B82A256E00A)
Полное имя : D:MOVIESNomer.Odin.2020.WEBRip-AVC.ExKinoRay.mkv
Формат : Matroska
Версия формата : Version 4
Размер файла : 1,25 Гбайт
Продолжительность : 1 ч. 32 м.
Общий поток : 1 942 Кбит/сек
Дата кодирования : UTC 2020-09-07 10:19:21
Программа кодирования : mkvmerge v45.0.0 ('Heaven in Pennies') 64-bit
Библиотека кодирования : libebml v1.3.10 + libmatroska v1.5.2

Видео
Идентификатор : 1
Формат : AVC
Формат/Информация : Advanced Video Codec
Профиль формата : High@L4.1
Настройки формата : CABAC / 13 Ref Frames
Параметр CABAC формата : Да
Параметр RefFrames формата : 13 кадров
Идентификатор кодека : V_MPEG4/ISO/AVC
Продолжительность : 1 ч. 32 м.
Битрейт : 1 750 Кбит/сек
Ширина : 1 024 пикселя
Высота : 428 пикселей
Соотношение сторон : 2,40:1
Режим частоты кадров : Постоянный
Частота кадров : 23,976 (24000/1001) кадра/сек
Цветовое пространство : YUV
Субдискретизация насыщенности : 4:2:0
Битовая глубина : 8 бит
Тип развёртки : Прогрессивная
Бит/(Пиксели*Кадры) : 0.167
Размер потока : 1,13 Гбайт (90%)
Библиотека кодирования : x264 core 160 r3000 33f9e14
Настройки программы : cabac=1 / ref=13 / deblock=1:-3:-3 / analyse=0x3:0x133 / me=umh / subme=10 / psy=1 / psy_rd=1.05:0.14 / mixed_ref=1 / me_range=32 / chroma_me=1 / trellis=2 / 8x8dct=1 / cqm=0 / deadzone=21,11 / fast_pskip=0 / chroma_qp_offset=-3 / threads=6 / lookahead_threads=1 / sliced_threads=0 / nr=0 / decimate=0 / interlaced=0 / bluray_compat=0 / constrained_intra=0 / bframes=11 / b_pyramid=2 / b_adapt=2 / b_bias=0 / direct=3 / weightb=1 / open_gop=0 / weightp=2 / keyint=240 / keyint_min=23 / scenecut=40 / intra_refresh=0 / rc=2pass / mbtree=0 / bitrate=1750 / ratetol=1.0 / qcomp=0.60 / qpmin=0 / qpmax=69 / qpstep=4 / cplxblur=20.0 / qblur=0.5 / ip_ratio=1.40 / pb_ratio=1.30 / aq=1:1.00
Язык : English
Default : Да
Forced : Нет
Цветовой диапазон : Limited
Основные цвета : BT.709
Характеристики трансфера : BT.709
Коэффициенты матрицы : BT.709

Аудио
Идентификатор : 2
Формат : AC-3
Формат/Информация : Audio Coding 3
Коммерческое название : Dolby Digital
Идентификатор кодека : A_AC3
Продолжительность : 1 ч. 32 м.
Вид битрейта : Постоянный
Битрейт : 192 Кбит/сек
Каналы : 2 канала
Channel layout : L R
Частота : 48,0 КГц
Частота кадров : 31,250 кадров/сек (1536 SPF)
Метод сжатия : С потерями
Размер потока : 127 Мбайт (10%)
Заголовок : rus
Язык : Russian
Service kind : Complete Main
Default : Да
Forced : Нет



Скриншоты:
[+] Всего файлов в раздаче - 1:
Nomer.Odin.2020.WEBRip-AVC.ExKinoRay.mkv1.25 GB

Похожие раздачи по запросу - номер:
2020-09-16 U Номер один (2020) WEBRip-AVC от MediaBit 752.16 MB ↑ 59 ↓ 8
2020-09-05 U Допросная номер один / 1 Interrogation (2020) WEB-DL 1080p от MediaBit | L 3.32 GB ↑ 165 ↓ 86
2020-09-05 U Допросная номер один / 1 Interrogation (2020) WEB-DLRip от MediaBit | L 1.35 GB ↑ 56 ↓ 32
2020-09-05 U Номер один (2020) WEBRip от Portablius 744.04 MB ↑ 94 ↓ 38
2020-09-05 U Номер один (2020) WEBRip от GeneralFilm 1.37 GB ↑ 88 ↓ 63
2020-09-04 U Номер один (2020) WEBRip 720p 2.72 GB ↑ 263 ↓ 222

Отзывы
Зарегистрируйтесь чтобы добавить комментарий.
Загрузите программу
  uTorrent.exe
Обратная связь
Copyleft ©