↑↓torrent.by
Поиск
Логин: Регистрация
Пароль: Восстановить пароль

Королева (2020) WEB-DL 1080p | iTunes

Скачать koroleva-2020-web-dl-1080p-itunes.torrent
U Магнитная ссылка Размер: 3.12 GB Раздают: 276 Качают: 231 Добавлен: 2020-09-11 19:28:12
Королева (2020) WEB-DL 1080p | iTunes

Название: Королева
Год выхода: 2020
Жанр:  Комедия
Режиссер: Таисия Игуменцева
В ролях: Татьяна Струженкова, Валерия Ёлкина, Данил Акутин, Егор Кенжаметов, Полина Кутепова, Максим Виторган, Софья Лебедева, Дарья Коныжева, Роман Плопер, Татьяна Рыбинец

О фильме: Настя - талантливая спортсменка, популярный блогер и первая красавица школы. Когда в класс приходит новенький, она ставит перед собой цель завоевать его внимание, но наталкивается на безразличие с его стороны. На что ей придётся пойти ради победы?

Страна: Россия
Студия: Марс Медиа Энтертейнмент
Продолжительность: 01:27:33
Перевод: Не требуется | iTunes

Файл
Качество: WEB-DL 1080p
Контейнер: MKV
Видео: MPEG-4 AVC, 1920x858, 4702 Kbps, 24.000 fps
Аудио: Russian: AC3, 48.0 KHz, 6 ch, 384 kbps - iTunes
Субтитры: Нет

Релиз:


[+] MediaInfo
General
Unique ID                   : 206996974095424485440790727573472423039 (0x9BBA2AC5CE8C6D74512DDA649BEE2C7F)
Complete name               : KOROLEVA_2020_WEB-DL_1080p-BLUEBIRD.mkv
Format                      : Matroska
Format version              : Version 4
File size                   : 3.12 GiB
Duration                    : 1 h 27 min
Overall bit rate            : 5 096 kb/s
Encoded date                : UTC 2020-09-10 18:14:42
Writing application         : mkvmerge v43.0.0 ('The Quartermaster') 64-bit
Writing library             : libebml v1.3.10 + libmatroska v1.5.2
Cover                       : Yes
Attachments                 : cover.png

Video
ID                          : 1
Format                      : AVC
Format/Info                 : Advanced Video Codec
Format profile              : High@L4
Format settings             : CABAC / 5 Ref Frames
Format settings, CABAC      : Yes
Format settings, Reference  : 5 frames
Codec ID                    : V_MPEG4/ISO/AVC
Duration                    : 1 h 27 min
Bit rate                    : 4 702 kb/s
Width                       : 1 920 pixels
Height                      : 858 pixels
Display aspect ratio        : 2.25:1
Frame rate mode             : Constant
Frame rate                  : 24.000 FPS
Color space                 : YUV
Chroma subsampling          : 4:2:0
Bit depth                   : 8 bits
Scan type                   : Progressive
Bits/(Pixel*Frame)          : 0.119
Stream size                 : 2.88 GiB (92%)
Language                    : English
Default                     : Yes
Forced                      : No
Color range                 : Limited
Color primaries             : BT.709
Transfer characteristics    : BT.709
Matrix coefficients         : BT.709

Audio
ID                          : 2
Format                      : AC-3
Format/Info                 : Audio Coding 3
Commercial name             : Dolby Digital
Codec ID                    : A_AC3
Duration                    : 1 h 27 min
Bit rate mode               : Constant
Bit rate                    : 384 kb/s
Channel(s)                  : 6 channels
Channel layout              : L R C LFE Ls Rs
Sampling rate               : 48.0 kHz
Frame rate                  : 31.250 FPS (1536 SPF)
Bit depth                   : 16 bits
Compression mode            : Lossy
Stream size                 : 240 MiB (8%)
Title                       : [ORIGINAL] DD 5.1 @ 384 kbps (iTunes)
Language                    : Russian
Service kind                : Complete Main
Default                     : Yes
Forced                      : No

Menu
00:00:00.000                : en:Глава 1
00:05:47.083                : en:Глава 2
00:11:14.124                : en:Глава 3
00:20:00.957                : en:Глава 4
00:25:39.082                : en:Глава 5
00:33:06.290                : en:Глава 6
00:43:17.290                : en:Глава 7
00:50:46.831                : en:Глава 8
00:56:16.706                : en:Глава 9
01:00:34.831                : en:Глава 10
01:08:30.706                : en:Глава 11
01:18:29.331                : en:Глава 12



Скриншоты:
[+] Всего файлов в раздаче - 1:
KOROLEVA_2020_WEB-DL_1080p-BLUEBIRD.mkv3.12 GB

Показать еще раздачи по запросу королева:
Сегодня U Фитнес / Королева фитнеса [04х01-12 из 20] (2020) WEBRip от GeneralFilm 3.27 GB ↑ 42 ↓ 143
2020-09-16 U Фитнес / Королева фитнеса [04х01-10 из 20] (2020) WEBRip от GeneralFilm 2.72 GB ↑ 81 ↓ 179
2020-09-15 U Няня. Королева проклятых / Няня: Королева убийц / The Babysitter: Killer Queen (2020) WEB-DLRip от MegaPeer | HDRezka Studio 1.46 GB ↑ 116 ↓ 58
2020-09-15 U Няня. Королева проклятых / Няня: Королева убийц / The Babysitter: Killer Queen (2020) WEB-DL 1080p от селезень | HDRezka Studio 4.63 GB ↑ 189 ↓ 107
2020-09-15 U Королева (2020) WEB-DLRip от Files-x | iTunes 1.37 GB ↑ 49 ↓ 30
2020-09-14 U Фитнес / Королева фитнеса [04х01-08 из 20] (2020) WEBRip от GeneralFilm 2.18 GB ↑ 53 ↓ 173
2020-09-12 U Няня. Королева проклятых / The Babysitter: Killer Queen (2020) WEB-DLRip-AVC | L2 1.15 GB ↑ 89 ↓ 37

Отзывы
Зарегистрируйтесь чтобы добавить комментарий.
Загрузите программу
  uTorrent.exe
Обратная связь
Copyleft ©