↑↓torrent.by
Поиск
Логин: Регистрация
Пароль: Восстановить пароль

Королева (2020) WEB-DLRip-AVC | iTunes

Скачать koroleva-2020-web-dlrip-avc-itunes.torrent
U Магнитная ссылка Размер: 1.36 GB Раздают: 57 Качают: 19 Добавлен: 2020-09-12 05:31:10
Королева (2020) WEB-DLRip-AVC | iTunes

Название: Королева
Год выхода: 2020
Жанр: Комедия

Режиссер: Таисия Игуменцева
В ролях: Татьяна Струженкова, Валерия Ёлкина, Данил Акутин, Егор Кенжаметов, Полина Кутепова, Максим Виторган, Софья Лебедева, Дарья Коныжева, Роман Плопер, Татьяна Рыбинец

О фильме:
Настя - талантливая спортсменка, популярный блогер и первая красавица школы. Когда в класс приходит новенький, она ставит перед собой цель завоевать его внимание, но наталкивается на безразличие с его стороны.

На что ей придётся пойти ради победы?

Страна: Россия
Студия: Марс Медиа Энтертейнмент
Продолжительность: 01:27:33
Перевод: Не требуется | iTunes

Файл
Качество: WEB-DLRip-AVC
Формат: MKV
Кодек: MPEG-4 AVC
Видео: 1024x458 (2,25:1), 24 fps, MPEG-4 AVC, 1843 Кbps avg, 0.164 bit/pixel
Аудио: AC3, 48 kHz, 6 ch, ~384.00 kbps avg | русский | iTunes
Субтитры: Отсутствуют


[+] Инфо-файл
Общее
Уникальный идентификатор                 : 335245169595815257058513906636198873794 (0xFC35DEFF554E1D1698AD67EE54A18AC2)
Полное имя                               : Koroleva.2020.WEB-DLRip.1.36Gb.x264.mkv
Формат                                   : Matroska
Версия формата                           : Version 4
Размер файла                             : 1,36 Гбайт
Продолжительность                        : 1 ч. 27 м.
Общий поток                              : 2 227 Кбит/сек
Название фильма                          : Королева (2020)
Дата кодирования                         : UTC 2020-09-11 18:42:55
Программа кодирования                    : mkvmerge v47.0.0 ('Black Flag') 64-bit
Библиотека кодирования                   : libebml v1.3.10 + libmatroska v1.5.2
Обложка                                  : Yes
Attachments                              : cover.png

Видео
Идентификатор                            : 1
Формат                                   : AVC
Формат/Информация                        : Advanced Video Codec
Профиль формата                          : High@L4.1
Настройки формата                        : CABAC / 9 Ref Frames
Параметр CABAC формата                   : Да
Параметр RefFrames формата               : 9 кадров
Идентификатор кодека                     : V_MPEG4/ISO/AVC
Продолжительность                        : 1 ч. 27 м.
Битрейт                                  : 1 843 Кбит/сек
Ширина                                   : 1 024 пикселя
Высота                                   : 458 пикселей
Соотношение сторон                       : 2,25:1
Режим частоты кадров                     : Постоянный
Частота кадров                           : 24,000 кадра/сек
Цветовое пространство                    : YUV
Субдискретизация насыщенности            : 4:2:0
Битовая глубина                          : 8 бит
Тип развёртки                            : Прогрессивная
Бит/(Пиксели*Кадры)                      : 0.164
Размер потока                            : 1,12 Гбайт (82%)
Заголовок                                : #stillet
Библиотека кодирования                   : x264 core 152 r2851bm ba24899
Настройки программы                      : cabac=1 / ref=9 / deblock=1:-2:-2 / analyse=0x3:0x113 / me=umh / subme=11 / psy=1 / psy_rd=1.00:0.15 / mixed_ref=1 / me_range=32 / chroma_me=1 / trellis=2 / 8x8dct=1 / cqm=0 / deadzone=21,11 / fast_pskip=0 / chroma_qp_offset=-3 / threads=8 / lookahead_threads=3 / sliced_threads=0 / nr=0 / decimate=0 / interlaced=0 / bluray_compat=0 / constrained_intra=0 / bframes=11 / b_pyramid=2 / b_adapt=2 / b_bias=0 / direct=3 / weightb=1 / open_gop=0 / weightp=2 / keyint=240 / keyint_min=24 / scenecut=40 / intra_refresh=0 / rc=2pass / mbtree=0 / bitrate=1843 / ratetol=1.0 / qcomp=0.60 / qpmin=0 / qpmax=69 / qpstep=4 / cplxblur=20.0 / qblur=0.5 / ip_ratio=1.40 / pb_ratio=1.30 / aq=1:1.00
Язык                                     : English
Default                                  : Да
Forced                                   : Нет

Аудио
Идентификатор                            : 2
Формат                                   : AC-3
Формат/Информация                        : Audio Coding 3
Коммерческое название                    : Dolby Digital
Идентификатор кодека                     : A_AC3
Продолжительность                        : 1 ч. 27 м.
Вид битрейта                             : Постоянный
Битрейт                                  : 384 Кбит/сек
Каналы                                   : 6 каналов
Channel layout                           : L R C LFE Ls Rs
Частота                                  : 48,0 КГц
Частота кадров                           : 31,250 кадров/сек (1536 SPF)
Метод сжатия                             : С потерями
Размер потока                            : 240 Мбайт (17%)
Заголовок                                : iTunes
Язык                                     : Russian
Service kind                             : Complete Main
Default                                  : Да
Forced                                   : Нет

Меню
00:00:00.000                             : en:Глава 1
00:05:47.083                             : en:Глава 2
00:11:14.124                             : en:Глава 3
00:20:00.957                             : en:Глава 4
00:25:39.082                             : en:Глава 5
00:33:06.290                             : en:Глава 6
00:43:17.290                             : en:Глава 7
00:50:46.831                             : en:Глава 8
00:56:16.706                             : en:Глава 9
01:00:34.831                             : en:Глава 10
01:08:30.706                             : en:Глава 11
01:18:29.331                             : en:Глава 12



Скриншоты:
[+] Всего файлов в раздаче - 1:
Koroleva.2020.WEB-DLRip.1.36Gb.x264.mkv1.36 GB

Показать еще раздачи по запросу королева:
Сегодня U Фитнес / Королева фитнеса [04х01-14 из 20] (2020) WEBRip от GeneralFilm 3.81 GB ↑ 24 ↓ 63
Вчера U Фитнес / Королева фитнеса [04х01-14 из 20] (2020) WEBRip 720p от Files-x 7.14 GB ↑ 35 ↓ 56
2020-09-22 U Фитнес / Королева фитнеса [04х01-12 из 20] (2020) WEBRip 720p от Files-x 6.12 GB ↑ 25 ↓ 41
2020-09-21 U Фитнес / Королева фитнеса [04х01-12 из 20] (2020) WEBRip от GeneralFilm 3.27 GB ↑ 42 ↓ 142
2020-09-16 U Фитнес / Королева фитнеса [04х01-10 из 20] (2020) WEBRip от GeneralFilm 2.72 GB ↑ 81 ↓ 180
2020-09-15 U Няня. Королева проклятых / Няня: Королева убийц / The Babysitter: Killer Queen (2020) WEB-DLRip от MegaPeer | HDRezka Studio 1.46 GB ↑ 121 ↓ 58
2020-09-15 U Няня. Королева проклятых / Няня: Королева убийц / The Babysitter: Killer Queen (2020) WEB-DL 1080p от селезень | HDRezka Studio 4.63 GB ↑ 189 ↓ 107

Отзывы
Зарегистрируйтесь чтобы добавить комментарий.
Загрузите программу
  uTorrent.exe
Обратная связь
Copyleft ©