↑↓torrent.by
Поиск
Логин: Регистрация
Пароль: Восстановить пароль

Королева (2020) WEB-DLRip от GeneralFilm | iTunes

Скачать koroleva-2020-web-dlrip-ot-generalfilm-itunes.torrent
U Магнитная ссылка Размер: 1.44 GB Раздают: 86 Качают: 27 Добавлен: 2020-09-12 05:31:23
Королева (2020) WEB-DLRip от GeneralFilm | iTunes

Оригинальное название: Королева
Год выпуска: 2020
Жанр:  Комедия
Выпущено: Россия, «Марс Медиа Энтертейнмент»
Режиссер: Таисия Игуменцева
В ролях: Татьяна Струженкова, Валерия Ёлкина, Данил Акутин, Егор Кенжаметов, Полина Кутепова, Максим Виторган, Софья Лебедева, Дарья Коныжева, Роман Плопер, Татьяна Рыбинец

О фильме: Настя - талантливая спортсменка, популярный блогер и первая красавица школы. Когда в класс приходит новенький, она ставит перед собой цель завоевать его внимание, но наталкивается на безразличие с его стороны. На что ей придётся пойти ради победы?

Качество: WEB-DLRip
Видео: XviD build 73, 720x320 (2.25:1), 24.000 fps, 1964 Kbps (0.355 bit/pixel)
Аудио: 48.0 kHz, AC3, 6/0 ch, 384 kbps
Продолжительность: 01:27:33
Перевод: Не требуется [Русский]
Cубтитры: нет


[+] MediaInfo
General
Complete name               : D:RazdachiKoroleva.2020.WEB-DLRip.GeneralFilm.avi
Format                      : AVI
Format/Info                 : Audio Video Interleave
File size                   : 1.44 GiB
Duration                    : 1 h 27 min
Overall bit rate            : 2 357 kb/s
Writing application         : VirtualDubMod 1.5.10.3 | www.virtualdub-fr.org || (build 2550/release)
Writing library             : VirtualDubMod build 2550/release

Video
ID                          : 0
Format                      : MPEG-4 Visual
Format profile              : Advanced Simple@L5
Format settings             : BVOP1
Format settings, BVOP       : 1
Format settings, QPel       : No
Format settings, GMC        : No warppoints
Format settings, Matrix     : Default (MPEG)
Codec ID                    : XVID
Codec ID/Hint               : XviD
Duration                    : 1 h 27 min
Bit rate                    : 1 964 kb/s
Width                       : 720 pixels
Height                      : 320 pixels
Display aspect ratio        : 2.25:1
Frame rate                  : 24.000 FPS
Color space                 : YUV
Chroma subsampling          : 4:2:0
Bit depth                   : 8 bits
Scan type                   : Progressive
Compression mode            : Lossy
Bits/(Pixel*Frame)          : 0.355
Stream size                 : 1.20 GiB (83%)
Writing library             : XviD 73

Audio
ID                          : 1
Format                      : AC-3
Format/Info                 : Audio Coding 3
Commercial name             : Dolby Digital
Codec ID                    : 2000
Duration                    : 1 h 27 min
Bit rate mode               : Constant
Bit rate                    : 384 kb/s
Channel(s)                  : 6 channels
Channel layout              : L R C LFE Ls Rs
Sampling rate               : 48.0 kHz
Frame rate                  : 31.250 FPS (1536 SPF)
Compression mode            : Lossy
Stream size                 : 240 MiB (16%)
Alignment                   : Split across interleaves
Interleave, duration        : 42  ms (1.00 video frame)
Interleave, preload duratio : 500  ms
Service kind                : Complete Main



Скриншоты:
[+] Всего файлов в раздаче - 1:
Koroleva.2020.WEB-DLRip.GeneralFilm.avi1.44 GB

Показать еще раздачи по запросу королева:
Вчера U Фитнес / Королева фитнеса [04х01-14 из 20] (2020) WEBRip от GeneralFilm 3.81 GB ↑ 24 ↓ 67
2020-09-23 U Фитнес / Королева фитнеса [04х01-14 из 20] (2020) WEBRip 720p от Files-x 7.14 GB ↑ 35 ↓ 56
2020-09-22 U Фитнес / Королева фитнеса [04х01-12 из 20] (2020) WEBRip 720p от Files-x 6.12 GB ↑ 25 ↓ 41
2020-09-21 U Фитнес / Королева фитнеса [04х01-12 из 20] (2020) WEBRip от GeneralFilm 3.27 GB ↑ 42 ↓ 142
2020-09-16 U Фитнес / Королева фитнеса [04х01-10 из 20] (2020) WEBRip от GeneralFilm 2.72 GB ↑ 81 ↓ 180
2020-09-15 U Няня. Королева проклятых / Няня: Королева убийц / The Babysitter: Killer Queen (2020) WEB-DLRip от MegaPeer | HDRezka Studio 1.46 GB ↑ 122 ↓ 58
2020-09-15 U Няня. Королева проклятых / Няня: Королева убийц / The Babysitter: Killer Queen (2020) WEB-DL 1080p от селезень | HDRezka Studio 4.63 GB ↑ 189 ↓ 107

Отзывы
Зарегистрируйтесь чтобы добавить комментарий.
Загрузите программу
  uTorrent.exe
Обратная связь
Copyleft ©