↑↓torrent.by
Поиск
Логин: Регистрация
Пароль: Восстановить пароль

Пацаны (1983) WEBRip 720p

Скачать pacany-1983-webrip-720p.torrent
U Магнитная ссылка Размер: 2.99 GB Раздают: 61 Качают: 9 Добавлен: 2020-09-12 05:31:44
Пацаны (1983) WEBRip 720p

Название: Пацаны
Год выхода: 1983
Жанр: Драма, криминал
Режиссер: Динара Асанова
В ролях: Ольга Машная, Валерий Приёмыхов, Андрей Зыков, Екатерина Васильева (I), Зиновий Гердт, Марина Левтова, Сергей Наумов, Евгений Никитин, Александр Харашкевич, Алексей Полуян, Владимир Гусев, Александр Совков, Юлиан Груздев, Юрий Мороз, Владислав Коновалов, Сергей Лосев, Ирина Соколова, Олег Хорев, Борис Аракелов, Валерий Кравченко, Людмила Старицына, Лариса Умарова

О фильме:
Хотя бы один взрослый, которого можно называть на «ты», должен быть в жизни каждого пацана... Актеры экстракласса - Валерий Приемыхов и тринадцатилетний Андрей Зыков - и ведущая тема фильмов Динары Асановой: непонимание, бесправие и одиночество подростка, против которого - весь мир взрослых.

Страна: СССР
Студия: Ленфильм
Продолжительность: 01:31:04
Перевод: Не требуется

Файл
Качество: WEBRip 720p
Формат: MKV
Кодек: MPEG-4 AVC
Видео: 1014x720 (1.408:1), 25 fps, MPEG-4 AVC ~ 4500 Kbps avg, 0.247 bit/pixel
Аудио: AC3, 48 kHz,  2 ch, ~192.00 kbps avg | русский |
Субтитры: Отсутствуют


[+] Инфо-файл
Общее
Уникальный идентификатор                 : 300382843275968449929664742515633099812 (0xE1FBA19A8D7BB1545F8AC3CC6FED1424)
Полное имя                               : Patsany.1983.720p.mkv
Формат                                   : Matroska
Версия формата                           : Version 4
Размер файла                             : 2,99 Гбайт
Продолжительность                        : 1 ч. 31 м.
Общий поток                              : 4 693 Кбит/сек
Название фильма                          : Пацаны (1983)
Дата кодирования                         : UTC 2020-09-10 16:45:17
Программа кодирования                    : mkvmerge v47.0.0 ('Black Flag') 64-bit
Библиотека кодирования                   : libebml v1.3.10 + libmatroska v1.5.2
Обложка                                  : Yes
Attachments                              : cover.jpg

Видео
Идентификатор                            : 1
Формат                                   : AVC
Формат/Информация                        : Advanced Video Codec
Профиль формата                          : High@L4.1
Настройки формата                        : CABAC / 10 Ref Frames
Параметр CABAC формата                   : Да
Параметр RefFrames формата               : 10 кадров
Идентификатор кодека                     : V_MPEG4/ISO/AVC
Продолжительность                        : 1 ч. 31 м.
Битрейт                                  : 4 500 Кбит/сек
Ширина                                   : 1 014 пикселей
Высота                                   : 720 пикселей
Соотношение сторон                       : 1,408
Режим частоты кадров                     : Постоянный
Частота кадров                           : 25,000 кадров/сек
Цветовое пространство                    : YUV
Субдискретизация насыщенности            : 4:2:0
Битовая глубина                          : 8 бит
Тип развёртки                            : Прогрессивная
Бит/(Пиксели*Кадры)                      : 0.247
Размер потока                            : 2,86 Гбайт (96%)
Заголовок                                : #stillet
Библиотека кодирования                   : x264 core 152 r2851bm ba24899
Настройки программы                      : cabac=1 / ref=10 / deblock=1:-3:-3 / analyse=0x3:0x113 / me=umh / subme=11 / psy=1 / psy_rd=1.00:0.15 / mixed_ref=1 / me_range=32 / chroma_me=1 / trellis=2 / 8x8dct=1 / cqm=0 / deadzone=21,11 / fast_pskip=0 / chroma_qp_offset=-3 / threads=8 / lookahead_threads=3 / sliced_threads=0 / nr=0 / decimate=0 / interlaced=0 / bluray_compat=0 / constrained_intra=0 / bframes=9 / b_pyramid=2 / b_adapt=2 / b_bias=0 / direct=3 / weightb=1 / open_gop=0 / weightp=2 / keyint=240 / keyint_min=24 / scenecut=40 / intra_refresh=0 / rc_lookahead=40 / rc=2pass / mbtree=0 / bitrate=4500 / ratetol=1.0 / qcomp=0.60 / qpmin=0 / qpmax=69 / qpstep=4 / cplxblur=20.0 / qblur=0.5 / vbv_maxrate=50000 / vbv_bufsize=62500 / nal_hrd=none / filler=0 / ip_ratio=1.40 / pb_ratio=1.30 / aq=1:1.00
Язык                                     : English
Default                                  : Да
Forced                                   : Нет

Аудио
Идентификатор                            : 2
Формат                                   : AC-3
Формат/Информация                        : Audio Coding 3
Коммерческое название                    : Dolby Digital
Идентификатор кодека                     : A_AC3
Продолжительность                        : 1 ч. 31 м.
Вид битрейта                             : Постоянный
Битрейт                                  : 192 Кбит/сек
Каналы                                   : 2 канала
Channel layout                           : L R
Частота                                  : 48,0 КГц
Частота кадров                           : 31,250 кадров/сек (1536 SPF)
Метод сжатия                             : С потерями
Размер потока                            : 125 Мбайт (4%)
Язык                                     : Russian
Service kind                             : Complete Main
Default                                  : Да
Forced                                   : Да




Скриншоты:
[+] Всего файлов в раздаче - 1:
Patsany.1983.720p.mkv2.99 GB

Показать еще раздачи по запросу пацаны:
2020-09-21 U Пацаны / The Boys [02x01-05 из 08] (2020) WEB-DL 720p | Кубик в Кубе 8.26 GB ↑ 71 ↓ 312
2020-09-21 U Пацаны / The Boys [02x01-05 из 08] (2020) WEB-DL 1080p | Кубик в Кубе 18.42 GB ↑ 25 ↓ 105
2020-09-20 U Пацаны / The Boys [02x01-05 из 08] (2020) WEBRip 1080p | AlexFilm, Jaskier, NewStudio, LostFilm, Кубик в Кубе 23.38 GB ↑ 99 ↓ 729
2020-09-19 U Пацаны / The Boys [02x01-05 из 08] (2020) WEB-DL 1080p | HDRezka Studio 18.42 GB ↑ 78 ↓ 456
2020-09-19 U Пацаны / The Boys [02х01-05 из 08] (2020) WEB-DLRip 720p | IdeaFilm 7.62 GB ↑ 80 ↓ 335
2020-09-19 U Пацаны / The Boys [02x01-05 из 08] (2020) WEBRip 1080p от Kerob | L 15.24 GB ↑ 77 ↓ 435
2020-09-14 U Пацаны / The Boys [02x01-04 из 08] (2020) WEB-DLRip | Кубик в Кубе 4.34 GB ↑ 33 ↓ 63

Отзывы
Зарегистрируйтесь чтобы добавить комментарий.
Загрузите программу
  uTorrent.exe
Обратная связь
Copyleft ©