↑↓torrent.by
Поиск
Логин: Регистрация
Пароль: Восстановить пароль

Голос 60+ [03х01-02] (2020) HDTVRip от GeneralFilm

Скачать golos-60-03h01-02-2020-hdtvrip-ot-generalfilm.torrent
U Магнитная ссылка Размер: 2.37 GB Раздают: 31 Качают: 20 Добавлен: 2020-09-12 05:33:03
Голос 60+ [03х01-02] (2020) HDTVRip от GeneralFilm

Год выпуска: 2020
Жанр:  ТВ-шоу, музыка
Выпущено: Россия, Первый канал, Красный квадрат
Ведущий: Дмитрий Нагиев
Наставники: Лев Лещенко, Тамара Гвердцители, Елена Ваенга, Гарик Сукачёв

О фильме: Никогда не поздно воплотить мечту. Каждый год и каждый день — начало новой жизни, если вы так решили. Участники проекта «Голос 60+» доказывают, что главный плюс — это их годы, опыт и умение принимать себя такими, какие они есть. Их голоса долго остаются молодыми, осанка подтянутой, лица юными, а глаза горящими.

Качество: HDTVRip
Видео: XviD, ~ 1600 Кбит/с, 720x400, 25 кадр/с
Аудио: Русский (AC3, 2 ch, 192 Кбит/с)
Продолжительность: 2 x ~ 01:35:00
Перевод: Не требуется
Субтитры: нет

Релиз:
[+] MediaInfo

Общее
Полное имя                               : D:Golos. 60+.S03.2020.HDTVRip.GeneralFilm1.Golos. 60+.S03.2020.HDTVRip.GeneralFilm.avi
Формат                                   : AVI
Формат/Информация                        : Audio Video Interleave
Размер файла                             : 1,20 Гбайт
Продолжительность                        : 1 ч. 35 м.
Общий поток                              : 1794 Кбит/сек

Видео
Идентификатор                            : 0
Формат                                   : MPEG-4 Visual
Профиль формата                          : Advanced Simple@L5
Параметр BVOP формата                    : 1
Параметр QPel формата                    : Нет
Параметр GMC формата                     : Без точки перехода
Параметр матрицы формата                 : Выборочная
Идентификатор кодека                     : XVID
Идентификатор кодека/Подсказка           : XviD
Продолжительность                        : 1 ч. 35 м.
Битрейт                                  : 1591 Кбит/сек
Ширина                                   : 720 пикселей
Высота                                   : 400 пикселей
Соотношение сторон                       : 16:9
Частота кадров                           : 25,000 кадров/сек
Цветовое пространство                    : YUV
Субдискретизация насыщенности            : 4:2:0
Битовая глубина                          : 8 бит
Тип развёртки                            : Прогрессивная
Метод сжатия                             : С потерями
Бит/(Пиксели*Кадры)                      : 0.221
Размер потока                            : 1,06 Гбайт (89%)
Библиотека кодирования                   : XviD 1.2.1 (UTC 2008-12-04)

Аудио
Идентификатор                            : 1
Формат                                   : AC-3
Формат/Информация                        : Audio Coding 3
Расширение режима                        : CM (complete main)
Параметр Endianness формата              : Big
Идентификатор кодека                     : 2000
Продолжительность                        : 1 ч. 35 м.
Вид битрейта                             : Постоянный
Битрейт                                  : 192 Кбит/сек
Каналы                                   : 2 канала
Расположение каналов                     : Front: L R
Частота                                  : 48,0 КГц
Битовая глубина                          : 16 бит
Метод сжатия                             : С потерями
Размер потока                            : 131 Мбайт (11%)
Выравнивание                             : Соединение по промежуткам
Продолжительность промежутка             : 32  мс. (0,80 видеокадр)




Скриншоты:
[+] Всего файлов в раздаче - 2:
01.Golos. 60+.S03.2020.HDTVRip.GeneralFilm.avi1.20 GB
02.Golos. 60+.S03.2020.HDTVRip.GeneralFilm.avi1.17 GB

Похожие раздачи по запросу - голос:
2020-02-22 U Голос. Дети [07x01-02] (2020) HDTVRip от GeneralFilm 2.63 GB ↑ 192 ↓ 119
2018-10-13 U Голос. Перезагрузка [07х01] (2018) HDTV 1080i от GeneralFilm 5.48 GB ↑ 604 ↓ 65
2018-04-29 U Голос. Дети. 5 лет [эфир от 27.04] (2018) HDTV 1080i 10.37 GB ↑ 1140 ↓ 59

Отзывы
Зарегистрируйтесь чтобы добавить комментарий.
Загрузите программу
  uTorrent.exe
Обратная связь
Copyleft ©