↑↓torrent.by
Поиск
Логин: Регистрация
Пароль: Восстановить пароль

Шахта (2013) WEB-DL 1080p от ExKinoRay

Скачать shahta-2013-web-dl-1080p-ot-exkinoray.torrent
U Магнитная ссылка Размер: 2.95 GB Раздают: 20 Качают: 14 Добавлен: 2020-09-13 07:32:51
Шахта (2013) WEB-DL 1080p от ExKinoRay

Оригинальное название: Шахта
Год выпуска: 2013
Жанр:  Драма, мелодрама
Выпущено: Россия, Киностудия "Мосфильм"
Режиссер: Нурбек Эген
В ролях: Никита Осадчий, Виталий Кищенко, Сергей Шнуров, Надежда Маркина, Шэвлин Стэйси, Вэрфилд Морис, Виктория Романенко

Описание:  Подросток Саша живет вместе с сестрой в маленьком шахтерском городке на севере России. Его отец, бывший шахтер, уехал в Америку в надежде сделать там карьеру боксера. А Саня пока учит английский и мечтает о том, чтобы отец забрал его к себе. Но для этого он должен победить на ринге сильного противника. Смогут ли отец и сын когда-нибудь быть вместе?

Страна: Россия
Студия: Киностудия "Мосфильм"
Продолжительность: 01:19:39
Перевод: Не требуется

Формат: MKV
Качество: WEB-DL 1080p
Видео: MPEG-4 AVC, 1920x800 (2.40:1), 25.000 fps, 5007 Kbps, 0.167 bit/pixel
Аудио : 48 kHz, AC3, 2.0, 192 Kbps | RUS |

Релиз:

Автор релиза:


[+] ОтчетМедиаИнфо

General
Shahta.2013.WEB-DL.(1080p).ExKinoRay.mkv
Format                      : Matroska
Format version              : Version 2
File size                   : 2.95 GiB
Duration                    : 1 h 19 min
Overall bit rate            : 5 305 kb/s
Movie name                  : Shahta.2013.WEB-DL.(1080p).ExKinoRay
Encoded date                : UTC 2020-09-11 23:42:57
Writing application         : mkvmerge v5.8.0 ('No Sleep / Pillow') built on Sep  2 2012 15:37:04
Writing library             : libebml v1.2.3 + libmatroska v1.3.0

Video
ID                          : 1
Format                      : AVC
Format/Info                 : Advanced Video Codec
Format profile              : High@L4
Format settings             : CABAC / 4 Ref Frames
Format settings, CABAC      : Yes
Format settings, Reference  : 4 frames
Codec ID                    : V_MPEG4/ISO/AVC
Duration                    : 1 h 19 min
Bit rate                    : 5 007 kb/s
Width                       : 1 920 pixels
Height                      : 800 pixels
Display aspect ratio        : 2.40:1
Frame rate mode             : Constant
Frame rate                  : 25.000 FPS
Color space                 : YUV
Chroma subsampling          : 4:2:0
Bit depth                   : 8 bits
Scan type                   : Progressive
Bits/(Pixel*Frame)          : 0.130
Stream size                 : 2.79 GiB (94%)
Language                    : Russian
Default                     : Yes
Forced                      : No

Audio
ID                          : 2
Format                      : AC-3
Format/Info                 : Audio Coding 3
Commercial name             : Dolby Digital
Codec ID                    : A_AC3
Duration                    : 1 h 19 min
Bit rate mode               : Constant
Bit rate                    : 192 kb/s
Channel(s)                  : 2 channels
Channel layout              : L R
Sampling rate               : 48.0 kHz
Frame rate                  : 31.250 FPS (1536 SPF)
Compression mode            : Lossy
Stream size                 : 109 MiB (4%)
Language                    : Russian
Service kind                : Complete Main
Default                     : Yes
Forced                      : No




Скриншоты:
[+] Всего файлов в раздаче - 1:
Shahta.2013.WEB-DL.(1080p).ExKinoRay.mkv2.95 GB

Отзывы
Зарегистрируйтесь чтобы добавить комментарий.
Загрузите программу
  uTorrent.exe
Обратная связь
Copyleft ©