↑↓torrent.by
Поиск
Логин: Регистрация
Пароль: Восстановить пароль

Дикая Ирландия - на краю земли / Wild Ireland: The Edge of the World (2017) HDTV 1080i | P1

Скачать dikaya-irlandiya-na-krayu-zemli-wild-ireland-the-edge-of-world-2017-hdtv-1080i-p1.torrent
U Магнитная ссылка Размер: 2.88 GB Раздают: 22 Качают: 11 Добавлен: 2020-09-13 07:33:37
Дикая Ирландия - на краю земли / Wild Ireland: The Edge of the World (2017) HDTV  1080i | P1

Название: Дикая Ирландия - на краю земли
Оригинальное название: Wild Ireland: The Edge of the World
Год выхода: 2017
Жанр: Документальный, природа, флора, фауна
Режиссер: Джон Мюррей

О фильме:
Изумрудное украшение западной оконечности Европы. Ирландия всегда была отдельным миром, последним кусочком суши перед пустынной ширью Атлантического океана, форпостом, подверженным капризам суровой морской стихии. Штормы, несущиеся с Атлантики, преодолевают три тысячи километров, прежде чем обрушить свою мощь на остров. Бушующий океан определяет образ жизни всех существ, обитающих на западном побережье Ирландии.

Страна: Австрия
Студия: ORF, NDR, ARTE
Продолжительность: 00:51:58
Перевод: Профессиональный (одноголосый закадровый)

Файл
Кодек: AVC/H.264
Качество: HDTV  1080i
Видео: 1920x1080 (16:9), AVC (H.264), Main@L4, 7387 kbps, 25fps, 0.142 bit/pixel
Звук:
Русский 48 kHz, MPEG Layer 2, 2 ch, ~192.00 kbps avg (1ТВЧ)
Русский 48 kHz, AC3 Dolby Digital, 2/0 (L,R) ch, ~192.00 kbps avg (СВ-Дубль)
Субтитры: Русские, отключаемые

Семпл

Релиз от: kyba
[+] MediaInfo
Complete name               : F:НаладкиДикая Ирландия_ Остров на краю света_1080i.mkv
Format                      : Matroska
Format version              : Version 4
File size                   : 2.88 GiB
Duration                    : 51 min 59 s
Overall bit rate            : 7 929 kb/s
Encoded date                : UTC 2020-09-10 16:54:52
Writing application         : mkvmerge v6.6.0 ('The Edge Of The In Between') built on Dec  1 2013 17:55:00
Writing library             : libebml v1.3.0 + libmatroska v1.4.1

Video
ID                          : 1
Format                      : AVC
Format/Info                 : Advanced Video Codec
Format profile              : Main@L4
Format settings             : CABAC / 3 Ref Frames
Format settings, CABAC      : Yes
Format settings, Reference  : 3 frames
Codec ID                    : V_MPEG4/ISO/AVC
Duration                    : 51 min 59 s
Bit rate                    : 7 387 kb/s
Width                       : 1 920 pixels
Height                      : 1 080 pixels
Display aspect ratio        : 16:9
Frame rate mode             : Constant
Frame rate                  : 25.000 FPS
Color space                 : YUV
Chroma subsampling          : 4:2:0
Bit depth                   : 8 bits
Scan type                   : Interlaced
Scan type, store method     : Separated fields
Scan order                  : Top Field First
Bits/(Pixel*Frame)          : 0.142
Stream size                 : 2.68 GiB (93%)
Default                     : Yes
Forced                      : No
Color range                 : Limited
Color primaries             : BT.709
Transfer characteristics    : BT.709
Matrix coefficients         : BT.709

Audio #1
ID                          : 2
Format                      : MPEG Audio
Format version              : Version 1
Format profile              : Layer 2
Codec ID                    : A_MPEG/L2
Codec ID/Hint               : MP2
Duration                    : 51 min 59 s
Bit rate mode               : Constant
Bit rate                    : 192 kb/s
Channel(s)                  : 2 channels
Sampling rate               : 48.0 kHz
Compression mode            : Lossy
Stream size                 : 71.4 MiB (2%)
Title                       : 1ТВЧ
Language                    : Russian
Default                     : No
Forced                      : Yes

Audio #2
ID                          : 3
Format                      : AC-3
Format/Info                 : Audio Coding 3
Commercial name             : Dolby Digital
Codec ID                    : A_AC3
Duration                    : 51 min 59 s
Bit rate mode               : Constant
Bit rate                    : 192 kb/s
Channel(s)                  : 2 channels
Channel layout              : L R
Sampling rate               : 48.0 kHz
Frame rate                  : 31.250 FPS (1536 SPF)
Bit depth                   : 16 bits
Compression mode            : Lossy
Stream size                 : 71.4 MiB (2%)
Title                       : СВ-Дубль
Language                    : Russian
Service kind                : Complete Main
Default                     : No
Forced                      : No

Text
ID                          : 4
Format                      : UTF-8
Codec ID                    : S_TEXT/UTF8
Codec ID/Info               : UTF-8 Plain Text
Title                       : СВ-Дубль
Language                    : Russian
Default                     : No
Forced                      : No



Скриншоты:
[+] Всего файлов в раздаче - 1:
Дикая Ирландия_ Остров на краю света_1080i.mkv2.88 GB

Похожие раздачи по запросу - дикая:
2020-09-21 U Ведьмак 3: Дикая Охота / The Witcher 3: Wild Hunt - Game of the Year Edition [v 1.31 + 18 DLC + HD Mod] (2015) PC | Repack от xatab 36.92 GB ↑ 83 ↓ 340
2020-06-21 U Дикая Роза / Wild Rose (2018) BDRip 1080p | iTunes 9.44 GB ↑ 330 ↓ 15
2020-06-05 U Дикая история / El bar (2017) BDRip 1080p | iTunes 6.65 GB ↑ 105 ↓ 14
2020-03-17 U Ведьмак 3: Дикая Охота / The Witcher 3: Wild Hunt - Game of the Year Edition [v 1.31 + 18 DLC + HD Mod] (2015) PC | Repack от xatab 1К35.21 GB ↑ 271 ↓ 380
2018-10-20 U Ведьмак 3: Дикая Охота / The Witcher 3: Wild Hunt + HD Reworked Project [v 1.31 + 18 DLC] (2015) PC | RePack от xatab 1К31.60 GB ↑ 709 ↓ 530
2017-08-18 U Дикая история / El bar (2017) BDRip от MegaPeer | Line 1К746.22 MB ↑ 612 ↓ 79

Отзывы
Зарегистрируйтесь чтобы добавить комментарий.
Загрузите программу
  uTorrent.exe
Обратная связь
Copyleft ©