↑↓torrent.by
Поиск
Логин: Регистрация
Пароль: Восстановить пароль

Рекорд / High Score [S01] (2020) WEBRip 720p | HDRezka Studio

Скачать rekord-high-score-s01-2020-webrip-720p-hdrezka-studio.torrent
U Магнитная ссылка Размер: 7.35 GB Раздают: 20 Качают: 12 Добавлен: 2020-09-13 07:34:04
Рекорд / High Score [S01] (2020) WEBRip 720p | HDRezka Studio

Название: Рекорд
Оригинальное название: High Score
Год выхода: 2020
Жанр: документальный, история, компьютерные, игры
Режиссер: Уильям Экс, Франс Кострел, Сэм Лакруа
В ролях: Чарльз Мартине, Ребекка Энн Хейнеман, Нолан Бушнелл, Том Калинске, Томохиро Нисикадо, Джон Ромеро, Хирокадзу Танака, Кен Уильямс, Гэйл Тильден, Роберта Уильямс, Акира Ясуда, Хирокадзу Ясухара, Ричард Гарриотт, Джефф Хансен, Даг Макрэй, Джон Тобиас, Трип Хоукинс, Джон Кирби

О фильме:
Документальный сериал «Рекорд» рассказывает о пионерах индустрии видеоигр. О смелых новаторах, которые создавали виртуальные миры Space Invaders, Final Fantasy, Street Fighter II, Mortal Kombat и других культовых игр. А также о первых геймерах, которые без всяких инструкций и прохождений раздвигали границы видеоигр, зарабатывая все больше денег, уничтожая все больше врагов и завоевывая все больше сердец. Это история о светлых умах, стоящих за пикселями, и о том, как они практически случайно создали многомиллиардную индустрию.

Страна: США, Япония
Студия: Netflix, Great Big Story Production
Продолжительность: 6 x ~ 00:41:00
Перевод: Профессиональный многоголосый, закадровый [HDrezka Studio]
Реклама: отсутствует

Файл
Кодек: H.264
Качество: WEBRip 720p
Видео: AVC, 1280x720 (16:9), 23.976 fps ~ 3000 Kbps
Звук:
AC3, 48 KHz, 6 ch ~ 448 Kb/s (русский)
E-AC3, 48 KHz, 6 ch ~ 640 Kb/s (английский)
Субтитры: русские (forced), русские, английские (full)


[+] MI:

Общее
Уникальный идентификатор : 245979041274684081060204165299960071745 (0xB90DD712A53FA7D18D8D6D259BA4C641)
Полное имя : J:wotHigh.Score.2020.S01.720p.NFHigh.Score.2020.S01E01.720p.mkv
Формат : Matroska
Версия формата : Version 4
Размер файла : 1,32 Гбайт
Продолжительность : 47 м. 17 с.
Режим общего битрейта : Переменный
Общий поток : 4 002 Кбит/сек
Дата кодирования : UTC 2020-09-11 08:38:28
Программа кодирования : mkvmerge v7.7.0 ('Six Voices') 32bit built on Feb 28 2015 23:23:00
Библиотека кодирования : libebml v1.3.1 + libmatroska v1.4.2

Видео
Идентификатор : 1
Формат : AVC
Формат/Информация : Advanced Video Codec
Профиль формата : Main@L3.1
Настройки формата : CABAC / 3 Ref Frames
Параметр CABAC формата : Да
Параметр RefFrames формата : 3 кадра
Идентификатор кодека : V_MPEG4/ISO/AVC
Продолжительность : 47 м. 17 с.
Вид битрейта : Переменный
Битрейт : 3 010 Кбит/сек
Максимальный битрейт : 4 515 Кбит/сек
Ширина : 1 280 пикселей
Высота : 720 пикселей
Соотношение сторон : 16:9
Режим частоты кадров : Постоянный
Частота кадров : 23,976 (24000/1001) кадра/сек
Цветовое пространство : YUV
Субдискретизация насыщенности : 4:2:0
Битовая глубина : 8 бит
Тип развёртки : Прогрессивная
Бит/(Пиксели*Кадры) : 0.136
Размер потока : 985 Мбайт (73%)
Библиотека кодирования : x264 core 148 r2717 0d2410d
Настройки программы : cabac=1 / ref=3 / deblock=1:0:0 / analyse=0x1:0x111 / me=umh / subme=10 / psy=1 / psy_rd=1.00:0.00 / mixed_ref=1 / me_range=24 / chroma_me=1 / trellis=2 / 8x8dct=0 / cqm=0 / deadzone=21,11 / fast_pskip=1 / chroma_qp_offset=-2 / threads=8 / lookahead_threads=1 / sliced_threads=0 / nr=0 / decimate=1 / interlaced=0 / bluray_compat=0 / stitchable=1 / constrained_intra=0 / bframes=2 / b_pyramid=0 / b_adapt=2 / b_bias=0 / direct=3 / weightb=1 / open_gop=0 / weightp=2 / keyint=250 / keyint_min=23 / scenecut=0 / intra_refresh=0 / rc_lookahead=48 / rc=2pass / mbtree=1 / bitrate=3010 / ratetol=1.0 / qcomp=0.50 / qpmin=6 / qpmax=51 / qpstep=4 / cplxblur=20.0 / qblur=0.5 / vbv_maxrate=4515 / vbv_bufsize=6020 / nal_hrd=vbr / filler=0 / ip_ratio=1.40 / aq=1:1.00
Язык : English
Default : Да
Forced : Нет

Аудио #1
Идентификатор : 2
Формат : AC-3
Формат/Информация : Audio Coding 3
Коммерческое название : Dolby Digital
Идентификатор кодека : A_AC3
Продолжительность : 47 м. 17 с.
Вид битрейта : Постоянный
Битрейт : 448 Кбит/сек
Каналы : 6 каналов
Channel layout : L R C LFE Ls Rs
Частота : 48,0 КГц
Частота кадров : 31,250 кадров/сек (1536 SPF)
Метод сжатия : С потерями
Размер потока : 152 Мбайт (11%)
Заголовок : HDrezka Studio
Язык : Russian
Service kind : Complete Main
Default : Да
Forced : Нет

Аудио #2
Идентификатор : 3
Формат : E-AC-3
Формат/Информация : Enhanced AC-3
Коммерческое название : Dolby Digital Plus
Идентификатор кодека : A_EAC3
Продолжительность : 47 м. 17 с.
Вид битрейта : Постоянный
Битрейт : 640 Кбит/сек
Каналы : 6 каналов
Channel layout : L R C LFE Ls Rs
Частота : 48,0 КГц
Частота кадров : 31,250 кадров/сек (1536 SPF)
Метод сжатия : С потерями
Размер потока : 216 Мбайт (16%)
Язык : English
Service kind : Complete Main
Default : Нет
Forced : Нет

Текст #1
Идентификатор : 4
Формат : UTF-8
Идентификатор кодека : S_TEXT/UTF8
Идентификатор кодека/Информация : UTF-8 Plain Text
Продолжительность : 44 м. 32 с.
Битрейт : 5 бит/сек
Count of elements : 48
Размер потока : 1,73 Кбайт (0%)
Заголовок : Русские (forced)
Язык : Russian
Default : Да
Forced : Нет

Текст #2
Идентификатор : 5
Формат : UTF-8
Идентификатор кодека : S_TEXT/UTF8
Идентификатор кодека/Информация : UTF-8 Plain Text
Продолжительность : 46 м. 13 с.
Битрейт : 148 бит/сек
Count of elements : 767
Размер потока : 50,2 Кбайт (0%)
Заголовок : Русские (полные)
Язык : Russian
Default : Нет
Forced : Нет

Текст #3
Идентификатор : 6
Формат : UTF-8
Идентификатор кодека : S_TEXT/UTF8
Идентификатор кодека/Информация : UTF-8 Plain Text
Продолжительность : 45 м. 10 с.
Битрейт : 94 бит/сек
Count of elements : 765
Размер потока : 31,2 Кбайт (0%)
Заголовок : Original
Язык : English
Default : Нет
Forced : Нет



Скриншоты:
[+] Всего файлов в раздаче - 6:
High.Score.2020.S01E04.720p.mkv1.35 GB
High.Score.2020.S01E01.720p.mkv1.32 GB
High.Score.2020.S01E05.720p.mkv1.31 GB
High.Score.2020.S01E02.720p.mkv1.23 GB
High.Score.2020.S01E06.720p.mkv1.09 GB
High.Score.2020.S01E03.720p.mkv1.06 GB

Отзывы
Зарегистрируйтесь чтобы добавить комментарий.
Загрузите программу
  uTorrent.exe
Обратная связь
Copyleft ©