↑↓torrent.by
Поиск
Логин: Регистрация
Пароль: Восстановить пароль

КВН-2020. Высшая лига 1/4 финала [01-02] (2020) HDTVRip от GeneralFilm

Скачать kvn-2020-vysshaya-liga-1-4-finala-01-02-hdtvrip-ot-generalfilm.torrent
U Магнитная ссылка Размер: 2.45 GB Раздают: 135 Качают: 149 Добавлен: 2020-09-14 07:53:11
КВН-2020. Высшая лига 1/4 финала [01-02] (2020) HDTVRip от GeneralFilm

Год выпуска: 2020
Жанр:  Передача, юмор
Выпущено: Россия, АМИК, ОАО "Первый канал"
Ведущий: Александр Масляков

О фильме: Что такое КВН - знают, без сомнения, все. В КВН играют во всем мире, это прежде всего молодежная игра. Постоянные конкурсные задания - "Визитная карточка", "Разминка", "Конкурс капитанов", "Музыкальный конкурс", "Домашнее задание". Игру команд оценивает профессиональное жюри - люди, у которых с чувством юмора все в порядке, многие из них раньше сами играли в КВН. Среди членов жюри были Константин Эрнст, Леонид Парфенов, Юлий Гусман, Леонид Ярмольник, Валдис Пельш, Сергей Шолохов, Геннадий Хазанов и другие. Кроме самих игр проводятся ежегодные встречи: фестиваль команд КВН (с 1990 г., семь раз фестиваль проходил в г.Сочи), музыкальный фестиваль КВН, летний кубок КВН, международные товарищеские игры в КВН. Сборная КВН играет со сборными других стран. Уже состоялись игры между сборной КВН и сборными Америки, Австралии, Израиля... Игра в КВН для многих становится профессией, а многие благодаря игре связывают жизнь с искусством. Из КВН "вышли": Леонид Якубович, Михаил Марфин, Татьяна Лазарева, Олег Филимонов, Юлий Гусман и многие другие.

Качество: HDTVRip
Видео: XviD, ~ 1600 Кбит/с, 720x400, 25 кадр/с
Аудио: Русский (AC3, 2 ch, 192 Кбит/с)
Продолжительность: 1 x ~ 01:47:00
Перевод: Не требуется
Субтитры: нет

Релиз:
[+] MediaInfo

Общее
Полное имя                               : D:KVN-2020.Vysshaja liga.HDTVRip.GeneralFilm1.KVN-2020.Vysshaja liga.1.4 finala.Igra pervaja.(06.09.2020).HDTVRip.GeneralFilm.avi
Формат                                   : AVI
Формат/Информация                        : Audio Video Interleave
Размер файла                             : 1,35 Гбайт
Продолжительность                        : 1 ч. 47 м.
Общий поток                              : 1800 Кбит/сек
Программа кодирования                    : VirtualDubMod 1.5.10.3 | www.virtualdub-fr.org || (build 2550/release)
Библиотека кодирования                   : VirtualDubMod build 2550/release

Видео
Идентификатор                            : 0
Формат                                   : MPEG-4 Visual
Профиль формата                          : Advanced Simple@L5
Параметр BVOP формата                    : 1
Параметр QPel формата                    : Нет
Параметр GMC формата                     : Без точки перехода
Параметр матрицы формата                 : Выборочная
Идентификатор кодека                     : XVID
Идентификатор кодека/Подсказка           : XviD
Продолжительность                        : 1 ч. 47 м.
Битрейт                                  : 1598 Кбит/сек
Ширина                                   : 720 пикселей
Высота                                   : 400 пикселей
Соотношение сторон                       : 16:9
Частота кадров                           : 25,000 кадров/сек
Цветовое пространство                    : YUV
Субдискретизация насыщенности            : 4:2:0
Битовая глубина                          : 8 бит
Тип развёртки                            : Прогрессивная
Метод сжатия                             : С потерями
Бит/(Пиксели*Кадры)                      : 0.222
Размер потока                            : 1,20 Гбайт (89%)
Библиотека кодирования                   : XviD 1.2.1 (UTC 2008-12-04)

Аудио
Идентификатор                            : 1
Формат                                   : AC-3
Формат/Информация                        : Audio Coding 3
Расширение режима                        : CM (complete main)
Параметр Endianness формата              : Big
Идентификатор кодека                     : 2000
Продолжительность                        : 1 ч. 47 м.
Вид битрейта                             : Постоянный
Битрейт                                  : 192 Кбит/сек
Каналы                                   : 2 канала
Расположение каналов                     : Front: L R
Частота                                  : 48,0 КГц
Битовая глубина                          : 16 бит
Метод сжатия                             : С потерями
Размер потока                            : 148 Мбайт (11%)
Выравнивание                             : Разделение по промежуткам
Продолжительность промежутка             : 40  мс. (1,00 видеокадр)
Время предзагрузки промежутка            : 500  мс.




[+] Команды

1/4 финала. Игра Первая
Сборная Снежногорска, Мурманск
«Полуостров», Симферополь
Сборная «Татнефти», Альметьевск
«Юра», Москва
«Я обиделась», НГУ и МИСиС

1/4 финала. Игра Вторая
«Доктор Хаусс», Могилёв
«Громокошки», Липецк
«Михаил Дудиков», Ставрополь
Сборная Цирка, Москва



Скриншоты:
[+] Всего файлов в раздаче - 2:
01.KVN-2020.Vysshaja liga.1.4 finala.Igra pervaja.(06.09.2020).HDTVRip.GeneralFilm.avi1.35 GB
02.KVN-2020.Vysshaja liga.1.4 finala.Igra vtoraja.(13.09.2020).HDTVRip.GeneralFilm.avi1.09 GB

Показать еще раздачи по запросу высшая:
Сегодня U КВН-2020. Высшая лига 1/4 финала [01-03] (2020) HDTVRip от GeneralFilm 3.82 GB ↑ 54 ↓ 78
Вчера U КВН-2020. Высшая лига. 1/4 финала. Игра третья [20.09] (2020) SATRip 1.46 GB ↑ 631 ↓ 231
2020-09-10 U Высшая лига детектива [9 книг] (2018-2020) FB2 17.99 MB ↑ 44 ↓ 17
2020-09-07 U КВН-2020. Высшая лига 1/4 финала [01] (2020) HDTVRip от GeneralFilm 1.35 GB ↑ 481 ↓ 125
2020-03-28 U КВН-2020. Высшая лига. 1/8 финала. Игра пятая [28.03] (2020) SATRip 1.23 GB ↑ 1311 ↓ 313
2020-02-23 U КВН-2020. Высшая лига [01-02] (2020) WEB-DLRip от Files-x 2.57 GB ↑ 315 ↓ 42
2018-05-28 U КВН-2018. Высшая лига. 1/4 финала.Игра третья [эфир от 27.05] (2018) DVB 2.32 GB ↑ 1450 ↓ 208

Отзывы
Зарегистрируйтесь чтобы добавить комментарий.
Загрузите программу
  uTorrent.exe
Обратная связь
Copyleft ©