↑↓torrent.by
Поиск
Логин: Регистрация
Пароль: Восстановить пароль

Дурная слава / Infamous (2020) WEB-DL 1080p | iTunes

Скачать durnaya-slava-infamous-2020-web-dl-1080p-itunes.torrent
U Магнитная ссылка Размер: 5.88 GB Раздают: 78 Качают: 59 Добавлен: 2020-09-14 07:53:56
Дурная слава / Infamous (2020) WEB-DL 1080p | iTunes

Название: Дурная слава
Оригинальное название: Infamous
Год выхода: 2020
Жанр: Криминал, мелодрама
Страна: США
Перевод: Дублированный | iTunes
Продолжительность: 01:40:23
Режиссер: Джошуа Колдуэлл
В ролях: Белла Торн, Джейк Мэнли, Эмбер Райли, Майкл Сироу, Мариса Кохлан, Аалайя Мухаммад, Мэдисон Бриди, Роуз Лэйн Санфилиппо, Дэймон Карни, Джои Оглсби и др.

О фильме: Парочка решает заработать денег грабежами, но им кажется, что этого мало, и они начинают выкладывать свои «подвиги» в социальных сетях, получая дополнительную известность и славу. Но такая беззаботная жизнь не может длиться долго.

Файл
Качество: WEB-DL 1080p | Infamous.2020.1080p.AMZN.WEB-DL.DDP5.1.H.264-NTG
Видео: MPEG-4 AVC, 1920x1080, 7365 kbps, 23,976 fps
Звук#1: русский, AC3, 5.1 ch, 48 kHz, 384 kbps
Звук#2: английский, E-AC3, 5.1 ch, 48 kHz, 640 kbps
Субтитры: русские (форс., полные (MENINSUB)), английские (полные, SDH)

Релиз:


[+] MI
Общее
Уникальный идентификатор                 : 220438288753899005836144239071282355467 (0xA5D6DEC030375F0E8FA26E3E95345D0B)
Полное имя                               : E:Torrent4DurnayaSlavaWEBDL1080p.mkv
Формат                                   : Matroska
Версия формата                           : Version 4 / Version 2
Размер файла                             : 5,88 Гбайт
Продолжительность                        : 1 ч. 40 м.
Общий поток                              : 8391 Кбит/сек
Дата кодирования                         : UTC 2020-09-13 20:10:25
Программа кодирования                    : mkvmerge v9.5.0 ('Quiet Fire') 64bit
Библиотека кодирования                   : libebml v1.3.4 + libmatroska v1.4.5

Видео
Идентификатор                            : 1
Формат                                   : AVC
Формат/Информация                        : Advanced Video Codec
Профиль формата                          : High@L4
Настройки формата                        : CABAC / 4 Ref Frames
Параметр CABAC формата                   : Да
Параметр RefFrames формата               : 4 кадра
Идентификатор кодека                     : V_MPEG4/ISO/AVC
Продолжительность                        : 1 ч. 40 м.
Вид битрейта                             : Постоянный
Битрейт                                  : 7365 Кбит/сек
Номинальный битрейт                      : 10000 Кбит/сек
Ширина                                   : 1920 пикселей
Высота                                   : 1080 пикселей
Соотношение сторон                       : 16:9
Режим частоты кадров                     : Постоянный
Частота кадров                           : 23,976 (24000/1001) кадра/сек
Цветовое пространство                    : YUV
Субдискретизация насыщенности            : 4:2:0
Битовая глубина                          : 8 бит
Тип развёртки                            : Прогрессивная
Бит/(Пиксели*Кадры)                      : 0.148
Размер потока                            : 5,16 Гбайт (88%)
Язык                                     : English
Default                                  : Да
Forced                                   : Нет
Цветовой диапазон                        : Limited
Основные цвета                           : BT.709
Характеристики трансфера                 : BT.709
Коэффициенты матрицы                     : BT.709

Аудио #1
Идентификатор                            : 2
Формат                                   : AC-3
Формат/Информация                        : Audio Coding 3
Параметр Endianness формата              : Big
Идентификатор кодека                     : A_AC3
Продолжительность                        : 1 ч. 40 м.
Вид битрейта                             : Постоянный
Битрейт                                  : 384 Кбит/сек
Каналы                                   : 6 каналов
Расположение каналов                     : Front: L C R, Side: L R, LFE
Частота                                  : 48,0 КГц
Частота кадров                           : 31,250 кадров/сек (1536 SPF)
Битовая глубина                          : 16 бит
Метод сжатия                             : С потерями
Размер потока                            : 276 Мбайт (5%)
Заголовок                                : rus
Язык                                     : Russian
Default                                  : Да
Forced                                   : Нет

Аудио #2
Идентификатор                            : 3
Формат                                   : E-AC-3
Формат/Информация                        : Enhanced Audio Coding 3
Параметр Endianness формата              : Big
Идентификатор кодека                     : A_EAC3
Продолжительность                        : 1 ч. 40 м.
Вид битрейта                             : Постоянный
Битрейт                                  : 640 Кбит/сек
Каналы                                   : 6 каналов
Расположение каналов                     : Front: L C R, Side: L R, LFE
Частота                                  : 48,0 КГц
Частота кадров                           : 187,500 кадров/сек (256 SPF)
Метод сжатия                             : С потерями
Размер потока                            : 460 Мбайт (8%)
Заголовок                                : eng
Язык                                     : English
Default                                  : Нет
Forced                                   : Нет

Текст #1
Идентификатор                            : 4
Формат                                   : UTF-8
Идентификатор кодека                     : S_TEXT/UTF8
Идентификатор кодека/Информация          : UTF-8 Plain Text
Продолжительность                        : 1 ч. 1 м.
Битрейт                                  : 0 бит/сек
ElementCount                             : 7
Размер потока                            : 445 байт (0%)
Заголовок                                : rusForced
Язык                                     : Russian
Default                                  : Да
Forced                                   : Нет

Текст #2
Идентификатор                            : 5
Формат                                   : UTF-8
Идентификатор кодека                     : S_TEXT/UTF8
Идентификатор кодека/Информация          : UTF-8 Plain Text
Продолжительность                        : 1 ч. 33 м.
Битрейт                                  : 73 бит/сек
ElementCount                             : 1170
Размер потока                            : 50,4 Кбайт (0%)
Заголовок                                : rusFull
Язык                                     : Russian
Default                                  : Нет
Forced                                   : Нет

Текст #3
Идентификатор                            : 6
Формат                                   : UTF-8
Идентификатор кодека                     : S_TEXT/UTF8
Идентификатор кодека/Информация          : UTF-8 Plain Text
Продолжительность                        : 1 ч. 35 м.
Битрейт                                  : 53 бит/сек
ElementCount                             : 1243
Размер потока                            : 37,3 Кбайт (0%)
Заголовок                                : engFull
Язык                                     : English
Default                                  : Нет
Forced                                   : Нет

Текст #4
Идентификатор                            : 7
Формат                                   : UTF-8
Идентификатор кодека                     : S_TEXT/UTF8
Идентификатор кодека/Информация          : UTF-8 Plain Text
Продолжительность                        : 1 ч. 35 м.
Битрейт                                  : 57 бит/сек
ElementCount                             : 1354
Размер потока                            : 40,2 Кбайт (0%)
Заголовок                                : engSDH
Язык                                     : English
Default                                  : Нет
Forced                                   : Нет



Скриншоты:
[+] Всего файлов в раздаче - 1:
DurnayaSlavaWEBDL1080p.mkv5.88 GB

Похожие раздачи по запросу - дурная:
2020-09-15 U Дурная слава / Infamous (2020) WEB-DLRip | iTunes 1.46 GB ↑ 61 ↓ 20
2019-12-14 U Владимир Кузьмин и гр. Динамик - Дурная репутация (2019) MP3 112.71 MB ↑ 136 ↓ 27

Отзывы
Зарегистрируйтесь чтобы добавить комментарий.
Загрузите программу
  uTorrent.exe
Обратная связь
Copyleft ©