↑↓torrent.by
Поиск
Логин: Регистрация
Пароль: Восстановить пароль

Дружить по-русски! / Inséparables (2019) BDRip 720p | iTunes

Скачать druzhit-po-russki-ins-parables-2019-bdrip-720p-itunes.torrent
U Магнитная ссылка Размер: 2.83 GB Раздают: 57 Качают: 18 Добавлен: 2020-09-14 07:54:05
Дружить по-русски! / Inséparables (2019) BDRip 720p | iTunes

Название: Дружить по-русски!
Оригинальное название: Inséparables
Год выхода: 2019
Жанр:  Комедия
Режиссер: Варант Суджян

В ролях: Ахмед Силла, Альбан Иванов, Жюдит Эль Зейн, Орнелла Флёри, Амир Эль Касем, Кристиан Бюжо, Давид Салль, Жан-Филипп Риччи, Пьер-Мари Москони, Лоранс Яэль

О фильме:
Если ты родился во Франции, но c русской душой — ты веришь в дружбу и всегда приходишь на помощь, можешь собрать ППШ с закрытыми глазами и готов на оскорбление ответить ударом в зубы. И даже если ты чистокровный француз, ты знаешь — русские своих не бросают!

Страна: Франция
Студия: Allys Films, CCJ Films, Chapka Films, Ciné, Les Bêtes Sauvages, M6 Films, SNC Audiovisuel FF, SND Groupe M6, W9
Продолжительность: 01:37:05
Перевод: Профессиональный (полное дублирование) | iTunes
Субтитры: Отсутствуют

Файл                                      
Формат: Matroska
Качество: BDRip 720p [Inseparables.2019.BDREMUX.1080p.seleZen]
Видео: 1280x536 at 24.000 fps, x264@L4.1, ~3340 kbps, 0.203 bpp
Аудио #01: 48 kHz, AC3, 5.1, 384 Kbps | iTunes | RUS |
Аудио #02: 48 kHz, AC3, 5.1, 448 Kbps | Оригинал | FRE

***Релиз от: -=DoMiNo=-


[+] M/I
x264 [info]: frame I:1256  Avg QP:14.67  size: 91808
x264 [info]: frame P:26978 Avg QP:16.19  size: 34905
x264 [info]: frame B:111567 Avg QP:18.29  size: 12327
x264 [info]: consecutive B-frames:  1.6%  1.1%  5.1% 12.6% 15.7% 51.5%  5.6%  3.3%  0.8%  0.3%  0.4%  0.9%  0.3%  0.2%  0.5%

General
Format                      : Matroska
Format version              : Version 4
File size                   : 2.83 GiB
Duration                    : 1 h 37 min
Overall bit rate            : 4 175 kb/s
Movie name                  : Дружить по-русски.(2019).BDRip.720p.[-=DoMiNo=-] / Inséparables
Encoded date                : UTC 2020-09-13 06:43:29
Writing application         : mkvmerge v50.0.0 ('Awakenings') 64-bit
Writing library             : libebml v1.4.0 + libmatroska v1.6.2
Cover                       : Yes
Attachments                 : Cover.jpg / Cover 2.jpg

Video
ID                          : 1
Format                      : AVC
Format/Info                 : Advanced Video Codec
Format profile              : High@L4.1
Format settings             : CABAC / 12 Ref Frames
Format settings, CABAC      : Yes
Format settings, Reference  : 12 frames
Codec ID                    : V_MPEG4/ISO/AVC
Duration                    : 1 h 37 min
Bit rate                    : 3 340 kb/s
Width                       : 1 280 pixels
Height                      : 536 pixels
Display aspect ratio        : 2.40:1
Frame rate mode             : Constant
Frame rate                  : 24.000 FPS
Color space                 : YUV
Chroma subsampling          : 4:2:0
Bit depth                   : 8 bits
Scan type                   : Progressive
Bits/(Pixel*Frame)          : 0.203
Stream size                 : 2.27 GiB (80%)
Title                       : -=DoMiNo=-
Writing library             : x264 core 161 r3018 db0d417
Encoding settings           : cabac=1 / ref=12 / deblock=1:-3:-3 / analyse=0x3:0x133 / me=umh / subme=11 / psy=1 / psy_rd=1.00:0.00 / mixed_ref=1 / me_range=48 / chroma_me=1 / trellis=2 / 8x8dct=1 / cqm=0 / deadzone=21,11 / fast_pskip=1 / chroma_qp_offset=-2 / threads=6 / lookahead_threads=1 / sliced_threads=0 / nr=0 / decimate=1 / interlaced=0 / bluray_compat=0 / constrained_intra=0 / bframes=14 / b_pyramid=2 / b_adapt=2 / b_bias=0 / direct=1 / weightb=1 / open_gop=0 / weightp=2 / keyint=250 / keyint_min=24 / scenecut=40 / intra_refresh=0 / rc_lookahead=60 / rc=crf / mbtree=0 / crf=17.5 / qcomp=0.60 / qpmin=0 / qpmax=69 / qpstep=4 / vbv_maxrate=50000 / vbv_bufsize=62500 / crf_max=0.0 / nal_hrd=none / filler=0 / ip_ratio=1.40 / pb_ratio=1.30 / aq=3:0.80
Language                    : French
Default                     : Yes
Forced                      : No
Color range                 : Limited
Color primaries             : BT.709
Transfer characteristics    : BT.709
Matrix coefficients         : BT.709

Audio #1
ID                          : 2
Format                      : AC-3
Format/Info                 : Audio Coding 3
Commercial name             : Dolby Digital
Codec ID                    : A_AC3
Duration                    : 1 h 37 min
Bit rate mode               : Constant
Bit rate                    : 384 kb/s
Channel(s)                  : 6 channels
Channel layout              : L R C LFE Ls Rs
Sampling rate               : 48.0 kHz
Frame rate                  : 31.250 FPS (1536 SPF)
Compression mode            : Lossy
Stream size                 : 267 MiB (9%)
Title                       : DUB
Language                    : Russian
Service kind                : Complete Main
Default                     : Yes
Forced                      : No

Audio #2
ID                          : 3
Format                      : AC-3
Format/Info                 : Audio Coding 3
Commercial name             : Dolby Digital
Codec ID                    : A_AC3
Duration                    : 1 h 37 min
Bit rate mode               : Constant
Bit rate                    : 448 kb/s
Channel(s)                  : 6 channels
Channel layout              : L R C LFE Ls Rs
Sampling rate               : 48.0 kHz
Frame rate                  : 31.250 FPS (1536 SPF)
Compression mode            : Lossy
Stream size                 : 311 MiB (11%)
Language                    : French
Service kind                : Complete Main
Default                     : No
Forced                      : No

Menu
00:00:00.000                : :Chapitre 01
00:09:21.500                : :Chapitre 02
00:17:46.542                : :Chapitre 03
00:26:15.000                : :Chapitre 04
00:36:21.208                : :Chapitre 05
00:45:14.000                : :Chapitre 06
00:53:52.542                : :Chapitre 07
01:04:53.083                : :Chapitre 08
01:10:33.208                : :Chapitre 09
01:19:15.583                : :Chapitre 10
01:28:23.542                : :Chapitre 11
01:33:54.625                : :Chapitre 12
01:37:04.792                : :Chapitre 13



Скриншоты:
[+] Всего файлов в раздаче - 1:
Дружить по-русски.(2019).BDRip.720p.[-=DoMiNo=-].mkv2.83 GB

Похожие раздачи по запросу - дружить:
2020-09-08 U Дружить по-русски! / Inséparables (2019) HDRip | iTunes 743.62 MB ↑ 82 ↓ 18
2020-09-08 U Дружить по-русски! / Inséparables (2019) BDRip-AVC | iTunes 1.41 GB ↑ 76 ↓ 6
2020-09-07 U Дружить по-русски! / Inséparables (2019) BDRip-AVC | iTunes 2.13 GB ↑ 122 ↓ 34
2020-09-07 U Дружить по-русски! / Inséparables (2019) BDRip 1080p от селезень | iTunes 9.09 GB ↑ 86 ↓ 89
2020-09-07 U Дружить по-русски! / Inséparables (2019) BDRip 720p от селезень | iTunes 4.63 GB ↑ 105 ↓ 63
2020-09-07 U Дружить по-русски! / Inséparables (2019) BDRip от MegaPeer | iTunes 1.46 GB ↑ 243 ↓ 137

Отзывы
Зарегистрируйтесь чтобы добавить комментарий.
Загрузите программу
  uTorrent.exe
Обратная связь
Copyleft ©