↑↓torrent.by
Поиск
Логин: Регистрация
Пароль: Восстановить пароль

Убийца / Sicario (2015) BDRip 1080p | A

Скачать ubiyca-sicario-2015-bdrip-1080p-a.torrent
U Магнитная ссылка Размер: 7.76 GB Раздают: 73 Качают: 33 Добавлен: 2020-09-14 15:40:45
Убийца / Sicario (2015) BDRip 1080p | A

Название: Убийца
Оригинальное название: Sicario
Год выхода: 2015
Жанр:  боевик, триллер, драма, криминал, детектив
Режиссер: Дени Вильнёв
В ролях: Эмили Блант, Бенисио Дель Торо, Джош Бролин, Виктор Гарбер, Джон Бернтал, Дэниэл Калуя, Джеффри Донован, Рауль Трухильо, Хулио Седильо, Хэнк Роджерсон и др.

О фильме: Безлюдные пустоши, по которым проходит граница между Мексикой и США, – это территория без правил, поле битвы между мексиканскими наркокартелями и американскими спецслужбами. Агент ФБР Кейт Мэйсер, которая работает в приграничных районах, старается придерживаться собственных идеалов, хотя и начинает ощущать, что исход войны с наркотрафиком складывается не в пользу служителей закона.

Однажды ей предоставляется шанс принять участие в работе элитного подразделения по борьбе с наркотиками, возглавляемого агентом Мэттом Грейвером. Самый загадочный участник команды – местный консультант, человек без имени, привычек, и, кажется, без прошлого. Его истинное лицо откроется только в ходе рискованной операции, во время которой Кейт будет вынуждена поступиться собственными принципами, чтобы остаться в живых.

Страна: США
Студия: Black Label Media, Lionsgate, Thunder Road
Продолжительность: 02:01:20
Перевод: Авторский (одноголосый, закадровый) Д.Пучков

Файл
Качество: BDRip 1080p | walledol
Формат: Matroska
Видео: 1920x800 at 23.976 fps, x264, ~7870 kbps avg
Аудио#1: Russian: 48 kHz, AC3, 3/2 (L,C,R,l,r) + LFE ch, ~640 kbps avg |Авторский, Д.Пучков|
Аудио#2: English: 48 kHz, AC3, 3/2 (L,C,R,l,r) + LFE ch, ~640 kbps avg
Субтитры: Russian (Forced, Full), English (Full)

***Сохранены оригинальные главы как на Blu-ray
***За перевод Д.Пучкова спасибо: TBiL. Работа со звуком: karasidi
***Внимание! Присутствует ненормативная лексика!


[+] Mediainfo
General
Unique ID                      : 227863725165058016812081544620109449780 (0xAB6CF50803076FFE89C2E2008027CA34)
Complete name                  : Sicario.2015.BDRip.1080p.mkv
Format                         : Matroska
Format version                 : Version 2
File size                      : 7.76 GiB
Duration                       : 2 h 1 min
Overall bit rate               : 9 152 kb/s
Movie name                     : Убийца / Sicario (2015)
Encoded date                   : UTC 2020-09-13 20:56:52
Writing application            : mkvmerge v5.8.0 ('No Sleep / Pillow') built on Sep  2 2012 15:37:04
Writing library                : libebml v1.2.3 + libmatroska v1.3.0

Video
ID                             : 1
Format                         : AVC
Format/Info                    : Advanced Video Codec
Format profile                 : High@L4.1
Format settings                : CABAC / 5 Ref Frames
Format settings, CABAC         : Yes
Format settings, Reference fra : 5 frames
Codec ID                       : V_MPEG4/ISO/AVC
Duration                       : 2 h 1 min
Bit rate                       : 7 870 kb/s
Width                          : 1 920 pixels
Height                         : 800 pixels
Display aspect ratio           : 2.40:1
Frame rate mode                : Constant
Frame rate                     : 23.976 (23976/1000) FPS
Color space                    : YUV
Chroma subsampling             : 4:2:0
Bit depth                      : 8 bits
Scan type                      : Progressive
Bits/(Pixel*Frame)             : 0.214
Stream size                    : 6.52 GiB (84%)
Writing library                : x264 core 148 r2638 7599210
Encoding settings              : cabac=1 / ref=5 / deblock=1:-3:-3 / analyse=0x3:0x133 / me=umh / subme=10 / psy=1 / psy_rd=1.00:0.10 / mixed_ref=1 / me_range=32 / chroma_me=1 / trellis=2 / 8x8dct=1 / cqm=0 / deadzone=21,11 / fast_pskip=0 / chroma_qp_offset=-3 / threads=6 / lookahead_threads=1 / sliced_threads=0 / nr=0 / decimate=1 / interlaced=0 / bluray_compat=0 / constrained_intra=0 / bframes=8 / b_pyramid=2 / b_adapt=2 / b_bias=0 / direct=3 / weightb=1 / open_gop=0 / weightp=2 / keyint=240 / keyint_min=23 / scenecut=40 / intra_refresh=0 / rc=2pass / mbtree=0 / bitrate=7870 / ratetol=1.0 / qcomp=0.60 / qpmin=0 / qpmax=69 / qpstep=4 / cplxblur=20.0 / qblur=0.5 / ip_ratio=1.40 / pb_ratio=1.30 / aq=2:0.90
Language                       : English
Default                        : Yes
Forced                         : No

Audio #1
ID                             : 2
Format                         : AC-3
Format/Info                    : Audio Coding 3
Commercial name                : Dolby Digital
Codec ID                       : A_AC3
Duration                       : 2 h 1 min
Bit rate mode                  : Constant
Bit rate                       : 640 kb/s
Channel(s)                     : 6 channels
Channel layout                 : L R C LFE Ls Rs
Sampling rate                  : 48.0 kHz
Frame rate                     : 31.250 FPS (1536 SPF)
Bit depth                      : 16 bits
Compression mode               : Lossy
Stream size                    : 555 MiB (7%)
Title                          : Авторский | Д.Пучков
Language                       : Russian
Service kind                   : Complete Main
Default                        : Yes
Forced                         : No

Audio #2
ID                             : 3
Format                         : AC-3
Format/Info                    : Audio Coding 3
Commercial name                : Dolby Digital
Codec ID                       : A_AC3
Duration                       : 2 h 1 min
Bit rate mode                  : Constant
Bit rate                       : 640 kb/s
Channel(s)                     : 6 channels
Channel layout                 : L R C LFE Ls Rs
Sampling rate                  : 48.0 kHz
Frame rate                     : 31.250 FPS (1536 SPF)
Bit depth                      : 16 bits
Compression mode               : Lossy
Stream size                    : 555 MiB (7%)
Language                       : English
Service kind                   : Complete Main
Default                        : No
Forced                         : No

Text #1
ID                             : 4
Format                         : UTF-8
Codec ID                       : S_TEXT/UTF8
Codec ID/Info                  : UTF-8 Plain Text
Title                          : Forced | voronine
Language                       : Russian
Default                        : No
Forced                         : No

Text #2
ID                             : 5
Format                         : UTF-8
Codec ID                       : S_TEXT/UTF8
Codec ID/Info                  : UTF-8 Plain Text
Title                          : Full | voronine
Language                       : Russian
Default                        : No
Forced                         : No

Text #3
ID                             : 6
Format                         : UTF-8
Codec ID                       : S_TEXT/UTF8
Codec ID/Info                  : UTF-8 Plain Text
Title                          : Full | Матвеев
Language                       : Russian
Default                        : No
Forced                         : No

Text #4
ID                             : 7
Format                         : UTF-8
Codec ID                       : S_TEXT/UTF8
Codec ID/Info                  : UTF-8 Plain Text
Language                       : English
Default                        : No
Forced                         : No

Menu
00:00:00.000                   : en:Chapter 01
00:07:14.350                   : en:Chapter 02
00:12:55.106                   : en:Chapter 03
00:20:04.368                   : en:Chapter 04
00:25:24.814                   : en:Chapter 05
00:32:11.596                   : en:Chapter 06
00:39:24.819                   : en:Chapter 07
00:46:15.313                   : en:Chapter 08
00:53:24.576                   : en:Chapter 09
01:01:40.320                   : en:Chapter 10
01:10:49.118                   : en:Chapter 11
01:18:02.886                   : en:Chapter 12
01:30:59.369                   : en:Chapter 13
01:36:57.770                   : en:Chapter 14
01:47:42.037                   : en:Chapter 15
01:54:12.804                   : en:Chapter 16
02:01:20.064                   : en:Chapter 17



Скриншоты:
[+] Всего файлов в раздаче - 1:
Sicario.2015.BDRip.1080p.mkv7.76 GB

Похожие раздачи по запросу - убийца:
2020-08-07 U Убийца гоблинов: Корона гоблина / Goblin Slayer: Goblin's Crown (2020) BDRip-HEVC 1080p | AniDUB, AniStar 834.81 MB ↑ 107 ↓ 27
2020-08-04 U Убийца гоблинов: Корона гоблина / Goblin Slayer: Goblin's Crown (2020) WEBRip 720p | Sub 2.45 GB ↑ 110 ↓ 11
2020-07-28 U Ассасинаут: Астронавт-убийца / Assassinaut (2019) WEB-DLRip от ExKinoRay | BadBajo 1.39 GB ↑ 53 ↓ 13
2020-05-02 U Джун - наёмный убийца / Хитмэн / Hitman: Agent Jun / Hiteumaen (2020) WEB-DL 1080p от New-Team | L2 4.27 GB ↑ 771 ↓ 98

Отзывы
Зарегистрируйтесь чтобы добавить комментарий.
Загрузите программу
  uTorrent.exe
Обратная связь
Copyleft ©