↑↓torrent.by
Поиск
Логин: Регистрация
Пароль: Восстановить пароль

Шифр [02х01 из 08] (2020) HDTVRip от GeneralFilm

Скачать shifr-02h01-iz-08-2020-hdtvrip-ot-generalfilm.torrent
U Магнитная ссылка Размер: 634.23 MB Раздают: 64 Качают: 6 Добавлен: 2020-09-15 15:09:29
Шифр [02х01 из 08] (2020) HDTVRip от GeneralFilm

Год выпуска: 2020
Жанр:  Детектив
Выпущено: Россия, Леан-М, Sony Pictures Television
Режиссер: Вера Сторожева
В ролях: Елена Панова, Марьяна Спивак, Екатерина Вилкова, Яна Дюбуи, Сергей Пускепалис, Олег Гаас, Наталья Суркова, Виталия Корниенко, Семён Шкаликов, Анна Лаврентьева, Софья Хилькова, Анна Королева (II), Сергей Черданцев, Сергей Белов, Софья Горелик, Сергей Медведев (III)

О фильме: Действие сериала разворачивается в 1957 году в Москве. Ирина, Анна, Софья и Катерина раскрывают новые загадочные убийства. Подполковник МУРа Проскурин категорически против вмешательства девушек в дела следствия, но в исключительных случаях ему все-таки приходится использовать их уникальные аналитические способности и нестандартные неожиданные идеи. Многое изменилось в жизни девушек с тех пор, как они спустя несколько лет после войны вновь стали спецгруппой. Соня развелась с Виктором, устроилась на работу в МУР. У Сони и помощника Проскурина Кима Вершинина завязываются романтические отношения. Катерине удалось наладить понимание с дочерью Лидой. Анна больше не работает в ресторане и в ее личной жизни наметились серьезные изменения. И только у Ирины все по-прежнему - муж, дети, работа в школе. Хотя, это только внешнее спокойствие и благополучие. Но несмотря на личные проблемы, девушки активно продолжают деятельность своей спецгруппы, которая все больше приобретает особый смысл и значение в их жизни.

Качество: HDTVRip
Видео: XviD, ~ 1600 Кбит/с, 704x384, 25 кадр/с
Аудио: Русский (AC3, 2 ch, 192 Кбит/с)
Продолжительность: 1 x ~ 00:49:00
Перевод: Не требуется
Субтитры: нет

Релиз:


[+] MediaInfo

Общее
Полное имя                               : D:Shifr.S02.HDTVRip.GeneralFilm1.Shifr.S02.HDTVRip.GeneralFilm.avi
Формат                                   : AVI
Формат/Информация                        : Audio Video Interleave
Размер файла                             : 634 Мбайт
Продолжительность                        : 49 м.
Общий поток                              : 1801 Кбит/сек
Программа кодирования                    : VirtualDubMod 1.5.10.3 | www.virtualdub-fr.org || (build 2550/release)
Библиотека кодирования                   : VirtualDubMod build 2550/release

Видео
Идентификатор                            : 0
Формат                                   : MPEG-4 Visual
Профиль формата                          : Advanced Simple@L5
Параметр BVOP формата                    : 1
Параметр QPel формата                    : Нет
Параметр GMC формата                     : Без точки перехода
Параметр матрицы формата                 : Выборочная
Идентификатор кодека                     : XVID
Идентификатор кодека/Подсказка           : XviD
Продолжительность                        : 49 м.
Битрейт                                  : 1600 Кбит/сек
Ширина                                   : 704 пикселя
Высота                                   : 384 пикселя
Соотношение сторон                       : 1,85:1
Частота кадров                           : 25,000 кадров/сек
Цветовое пространство                    : YUV
Субдискретизация насыщенности            : 4:2:0
Битовая глубина                          : 8 бит
Тип развёртки                            : Прогрессивная
Метод сжатия                             : С потерями
Бит/(Пиксели*Кадры)                      : 0.237
Размер потока                            : 563 Мбайт (89%)
Библиотека кодирования                   : XviD 1.2.1 (UTC 2008-12-04)

Аудио
Идентификатор                            : 1
Формат                                   : AC-3
Формат/Информация                        : Audio Coding 3
Расширение режима                        : CM (complete main)
Параметр Endianness формата              : Big
Идентификатор кодека                     : 2000
Продолжительность                        : 49 м.
Вид битрейта                             : Постоянный
Битрейт                                  : 192 Кбит/сек
Каналы                                   : 2 канала
Расположение каналов                     : Front: L R
Частота                                  : 48,0 КГц
Битовая глубина                          : 16 бит
Метод сжатия                             : С потерями
Размер потока                            : 67,6 Мбайт (11%)
Выравнивание                             : Разделение по промежуткам
Продолжительность промежутка             : 40  мс. (1,00 видеокадр)
Время предзагрузки промежутка            : 500  мс.




Скриншоты:
[+] Всего файлов в раздаче - 1:
01.Shifr.S02.HDTVRip.GeneralFilm.avi634.23 MB

Показать еще раздачи по запросу шифр:
Сегодня U Шифр [02х01-06 из 08] (2020) HDTVRip от GeneralFilm 3.97 GB ↑ 24 ↓ 56
Сегодня U Шифр [02х01-06 из 08] (2020) HDTVRip 720p от GeneralFilm 8.13 GB ↑ 33 ↓ 66
Сегодня U Шифр [02х01-06 из 08] (2020) HDTVRip-AVC от Files-x 4.83 GB ↑ 33 ↓ 45
Сегодня U Шифр [02х01-06 из 08] (2020) HDTV 1080i от GeneralFilm 15.06 GB ↑ 43 ↓ 44
Сегодня U Шифр [02х01-06 из 08] (2020) SATRip-AVC 3.74 GB ↑ 118 ↓ 202
Вчера U Шифр [02х01-05 из 08] (2020) HDTVRip 720p от GeneralFilm 6.80 GB ↑ 41 ↓ 70
Вчера U Шифр [02x01-06 из 08] (2020) SATRip 3.52 GB ↑ 241 ↓ 254

Отзывы
Зарегистрируйтесь чтобы добавить комментарий.
Загрузите программу
  uTorrent.exe
Обратная связь
Copyleft ©