↑↓torrent.by
Поиск
Логин: Регистрация
Пароль: Восстановить пароль

Английские псы в Бангкоке / English Dogs (2020) WEB-DL 1080p от MediaBit | L

Скачать angliyskie-psy-v-bangkoke-english-dogs-2020-web-dl-1080p-ot-mediabit-l.torrent
U Магнитная ссылка Размер: 5.18 GB Раздают: 53 Качают: 16 Добавлен: 2020-09-15 15:09:39
Английские псы в Бангкоке / English Dogs (2020) WEB-DL 1080p от MediaBit | L

Название: Английские псы в Бангкоке
Оригинальное название: English Dogs
Год выхода: 2020
Жанр: Боевик, криминал
Режиссер: Таффи Эдвардс
В ролях: Рон Смуренбург, Байрон Гибсон, Оуэн О'Брайен, Дэмиэн Мевис, Дин Александру, Александр Уинтерс, Марк Стас, Дэвид Блазейко, Ли Барвелл, Ли Мэйсон

О фильме: Некий солдат и кикбоксёр из криминального мира объединяют свои усилия, чтобы стать крупнейшими нелегальными поставщиками стероидов в Азии, неся хаос и разрушение на улицы Таиланда.

Страна: Великобритания
Студия: Crazy Rooster Films, Zillwood films
Продолжительность: 01:25:09
Перевод: Любительский многоголосый | @MUZOBOZ@

Файл
Кодек: MPEG-4 AVC
Качество: WEB-DL 1080p
Видео: 8283 Кбит/с, 1920x1080, 23.976 кадр/с
Звук:
Аудио #1: AC3, 48 Гц, 192 Кбит/сек, 2 ch (L + R) | MVO | @MUZOBOZ@
Аудио #2: AC3, 48 Гц, 224 Кбит/сек, 2 ch (L + R) | Английский
Субтитры: Английские

Релиз:


[+] MI
Общее
Уникальный идентификатор                 : 228541696651819331149232773314438983685 (0xABEF879B395825FB2E7699DBF1677005)
Полное имя                               : D:ТоррентыEnglish.Dogs.2020.1080p.AMZN.WEBRip.DDP2.0.x264-CMAngliyskie.Psi.2020.x264.WEB-DL(1080p)-MediaBit.mkv
Формат                                   : Matroska
Версия формата                           : Version 4
Размер файла                             : 5,18 Гбайт
Продолжительность                        : 1 ч. 25 м.
Общий поток                              : 8 701 Кбит/сек
Название фильма                          :   / Английские псы в Бангкоке / English Dogs / (2020)
Дата кодирования                         : UTC 2020-09-13 20:24:20
Программа кодирования                    : mkvmerge v25.0.0 ('Prog Noir') 64-bit
Библиотека кодирования                   : libebml v1.3.6 + libmatroska v1.4.9

Видео
Идентификатор                            : 1
Формат                                   : AVC
Формат/Информация                        : Advanced Video Codec
Профиль формата                          : High@L4
Настройки формата                        : CABAC / 4 Ref Frames
Параметр CABAC формата                   : Да
Параметр RefFrames формата               : 4 кадра
Идентификатор кодека                     : V_MPEG4/ISO/AVC
Продолжительность                        : 1 ч. 25 м.
Вид битрейта                             : Постоянный
Битрейт                                  : 8 283 Кбит/сек
Номинальный битрейт                      : 10 000 Кбит/сек
Ширина                                   : 1 920 пикселей
Высота                                   : 1 080 пикселей
Соотношение сторон                       : 16:9
Режим частоты кадров                     : Постоянный
Частота кадров                           : 23,976 (24000/1001) кадра/сек
Цветовое пространство                    : YUV
Субдискретизация насыщенности            : 4:2:0
Битовая глубина                          : 8 бит
Тип развёртки                            : Прогрессивная
Бит/(Пиксели*Кадры)                      : 0.167
Размер потока                            : 4,93 Гбайт (95%)
Заголовок                                : CM
Язык                                     : English
Default                                  : Да
Forced                                   : Нет
Цветовой диапазон                        : Limited
Основные цвета                           : BT.709
Характеристики трансфера                 : BT.709
Коэффициенты матрицы                     : BT.709

Аудио #1
Идентификатор                            : 2
Формат                                   : AC-3
Формат/Информация                        : Audio Coding 3
Коммерческое название                    : Dolby Digital
Идентификатор кодека                     : A_AC3
Продолжительность                        : 1 ч. 25 м.
Вид битрейта                             : Постоянный
Битрейт                                  : 192 Кбит/сек
Каналы                                   : 2 канала
Channel layout                           : L R
Частота                                  : 48,0 КГц
Частота кадров                           : 31,250 кадров/сек (1536 SPF)
Метод сжатия                             : С потерями
Размер потока                            : 117 Мбайт (2%)
Заголовок                                : MVO [@MUZOBOZ@] MediaBit
Язык                                     : Russian
Service kind                             : Complete Main
Default                                  : Да
Forced                                   : Нет

Аудио #2
Идентификатор                            : 3
Формат                                   : AC-3
Формат/Информация                        : Audio Coding 3
Коммерческое название                    : Dolby Digital
Идентификатор кодека                     : A_AC3
Продолжительность                        : 1 ч. 25 м.
Вид битрейта                             : Постоянный
Битрейт                                  : 224 Кбит/сек
Каналы                                   : 2 канала
Channel layout                           : L R
Частота                                  : 48,0 КГц
Частота кадров                           : 31,250 кадров/сек (1536 SPF)
Метод сжатия                             : С потерями
Размер потока                            : 136 Мбайт (3%)
Заголовок                                : Original
Язык                                     : English
Service kind                             : Complete Main
Default                                  : Нет
Forced                                   : Нет

Текст
Идентификатор                            : 4
Формат                                   : UTF-8
Идентификатор кодека                     : S_TEXT/UTF8
Идентификатор кодека/Информация          : UTF-8 Plain Text
Продолжительность                        : 1 ч. 22 м.
Битрейт                                  : 56 бит/сек
Count of elements                        : 1247
Размер потока                            : 33,8 Кбайт (0%)
Язык                                     : English
Default                                  : Нет
Forced                                   : Нет



Скриншоты:
[+] Всего файлов в раздаче - 1:
Angliyskie.Psi.2020.x264.WEB-DL(1080p)-MediaBit.mkv5.18 GB

Похожие раздачи по запросу - английские:
2020-09-15 U Английские псы в Бангкоке / English Dogs (2020) WEB-DLRip от MediaBit | L 1К1.37 GB ↑ 81 ↓ 24

Отзывы
Зарегистрируйтесь чтобы добавить комментарий.
Загрузите программу
  uTorrent.exe
Обратная связь
Copyleft ©