↑↓torrent.by
Поиск
Логин: Регистрация
Пароль: Восстановить пароль

Ольга [04x01-10] (2020) HDTV 1080p от Generalfilm

Скачать olga-04x01-10-2020-hdtv-1080p-ot-generalfilm.torrent
U Магнитная ссылка Размер: 10.84 GB Раздают: 60 Качают: 199 Добавлен: 2020-09-15 15:09:51
Ольга [04x01-10] (2020) HDTV 1080p от Generalfilm

Ольга


Год выпуска: 2020
Жанр:  Комедия
Режиссер: Алексей Нужный, Игорь Волошин, Антон Борматов

В ролях: Яна Троянова (Ольга Терентьева), Василий Кортуков (Юрий Геннадьевич Терентьев, отец Ольги), Алина Алексеева (Лена, младшая сестра Ольги), Ксения Суркова (Аня, дочь Ольги), Сергей Романович (Андрей, парень Ани), Максим Костромыкин (Григорий Юсупов), Гоша Куценко (Володя), Анастасия Матвеева (Саша), Павел Майков (Жора, сосед Терентьевых), Юра Борисов (Лев), Фархад Гусейнов (водитель), Борис Дергачев (водитель)

О фильме: Семейство Терентьевых начинает безудержно спасать окружающих, чего бы им и спасаемым это ни стоило. Сестра Ленка вызволяет молодого отца своего ребенка Пушкина из армейской части и готовится к свадьбе, дочь Аня помогает странному Льву научиться заботиться не только об окружающих, но и о ней с их ребенком, сын Тимофей спасает соседку Сашу от неблагополучного отца, бухарика Жоры, параллельно сам впутываясь все глубже в криминальные истории. Даже Юрген хочет помочь жене, которая уже умерла. Ольга дистанцируется от семьи, и та оказывается на грани катастрофы. Как описывает ситуацию неудавшийся жених Ольги Гриша: «Аня жениха выгнала, Тимофей со шпаной связался, дядя Юра вообще цементом могилы заливает... а ей фиолетово!». Только возвращение матери-героини может спасти семью… Но захочет ли Ольга в очередной раз быть самой сильной и решать за всех?

Страна: Россия
Студия: Good Story Media
Продолжительность: ~ 00:22:17

Файл
Кодек: h.264
Качество: HDTV 1080p
Видео: MPEG-4 AVC,1920x1080 (16:9), 7050 kbps, 25 fps, 0,136 bpp
Аудио: AC3, 2 ch, 192 Кбит/с
Язык: Русский

Релиз:
[+] MediaInfo
General
Unique ID : 211094064382592519324240097447252451961 (0x9ECF3CEB733D2452A283C9B3DFE5E279)
Complete name : E:Запись с твOlgaS04 2020 HDTV 1080p.R.G.GeneralfilmOlga.s04.e02.2020.HDTV 1080p.by.White Smoke.R.G.Generalfilm.mkv
Format : Matroska
Format version : Version 4 / Version 2
File size : 1.13 GiB
Duration : 22 min
Overall bit rate mode : Constant
Overall bit rate : 7 247 kb/s
Movie name : Olga.s04.e02.2020.HDTV 1080p.by.White Smoke.R.G.Generalfilm.mkv
Encoded date : UTC 2020-09-01 07:16:55
Writing application : mkvmerge v6.8.0 ('Theme for Great Cities') 64bit built on Mar 2 2014 21:34:26
Writing library : libebml v1.3.0 + libmatroska v1.4.1
Cover : Yes
Attachments : cover.jpg

Video
ID : 1
Format : AVC
Format/Info : Advanced Video Codec
Format profile : High@L4.1
Format settings, CABAC : Yes
Format settings, ReFrames : 3 frames
Codec ID : V_MPEG4/ISO/AVC
Duration : 22 min
Bit rate mode : Constant
Bit rate : 7 051 kb/s
Width : 1 920 pixels
Height : 1 080 pixels
Display aspect ratio : 16:9
Frame rate mode : Constant
Frame rate : 25.000 FPS
Standard : PAL
Color space : YUV
Chroma subsampling : 4:2:0
Bit depth : 8 bits
Scan type : Progressive
Bits/(Pixel*Frame) : 0.136
Stream size : 1.08 GiB (95%)
Default : Yes
Forced : No
Color range : Limited
Color primaries : BT.709
Transfer characteristics : BT.709
Matrix coefficients : BT.709

Audio
ID : 2
Format : AC-3
Format/Info : Audio Coding 3
Mode extension : CM (complete main)
Format settings, Endianness : Big
Codec ID : A_AC3
Duration : 22 min
Bit rate mode : Constant
Bit rate : 192 kb/s
Channel(s) : 2 channels
Channel positions : Front: L R
Sampling rate : 48.0 kHz
Frame rate : 31.250 FPS (1536 spf)
Compression mode : Lossy
Stream size : 30.6 MiB (3%)
Default : Yes
Forced : No



Скриншоты:
[+] Всего файлов в раздаче - 10:
Olga.s04.e01.2020.HDTV 1080p.by.White Smoke.R.G.Generalfilm.mkv1.16 GB
Olga.s04.e02.2020.HDTV 1080p.by.White Smoke.R.G.Generalfilm.mkv1.13 GB
Olga.s04.e03.2020.HDTV 1080p.by.White Smoke.R.G.Generalfilm.mkv1.12 GB
Olga.s04.e04.2020.HDTV 1080p.by.White Smoke.R.G.Generalfilm.mkv1.09 GB
Olga.s04.e05.2020.HDTV 1080p.by.White Smoke.R.G.Generalfilm.mkv1.13 GB
Olga.s04.e06.2020.HDTV 1080p.by.White Smoke.R.G.Generalfilm.mkv1.02 GB
Olga.s04.e07.2020.HDTV 1080p.by.White Smoke.R.G.Generalfilm.mkv1.02 GB
Olga.s04.e08.2020.HDTV 1080p.by.White Smoke.R.G.Generalfilm.mkv1.12 GB
Olga.s04.e09.2020.HDTV 1080p.by.White Smoke.R.G.Generalfilm.mkv986.40 MB
Olga.s04.e10.2020.HDTV 1080p.by.White Smoke.R.G.Generalfilm.mkv1.08 GB

Показать еще раздачи по запросу ольга:
Сегодня U Ольга [04х01-15 из 20] (2020) HDTVRip-AVC 4.78 GB ↑ 34 ↓ 73
Сегодня U Ольга [04x01-15] (2020) WEBRip 1080p 10.35 GB ↑ 19 ↓ 55
Сегодня U Ольга [04x01-15] (2020) WEBRip 720p от Files-x 7.03 GB ↑ 16 ↓ 67
Сегодня U Ольга [04x01-15] (2020) SATRip 4.42 GB ↑ 145 ↓ 668
Вчера U Ольга [04x01-14] (2020) HDTV 1080p от Generalfilm 14.78 GB ↑ 63 ↓ 83
2020-09-21 U Ольга [04x01-14] (2020) SATRip 4.13 GB ↑ 346 ↓ 719
2020-09-20 U Ольга [04x01-13 из 20] (2020) WEBRip от GeneralFilm 3.54 GB ↑ 68 ↓ 119

Отзывы
василиса
ТОП.Очень крутой и безбашенный

vfnbrfdf
не бросайте раздачу,выкладывайте пожалуйста серии

Зарегистрируйтесь чтобы добавить комментарий.
Загрузите программу
  uTorrent.exe
Обратная связь
Copyleft ©