↑↓torrent.by
Поиск
Логин: Регистрация
Пароль: Восстановить пароль

Мир Юрского периода: Лагерь Мелового периода / Jurassic World: Camp Cretaceous [S01] (2020) WEB-DL 1080p | D

Скачать mir-yurskogo-perioda-lager-melovogo-jurassic-world-camp-cretaceous-s01-2020-web-dl-1080p-d.torrent
U Магнитная ссылка Размер: 8.85 GB Раздают: 453 Качают: 351 Добавлен: 2020-09-19 19:01:49
Мир Юрского периода: Лагерь Мелового периода / Jurassic World: Camp Cretaceous [S01] (2020) WEB-DL 1080p | D

Название: Мир Юрского периода: Лагерь Мелового периода
Оригинальное название: Jurassic World: Camp Cretaceous
Год выхода: 2020
Жанр: Мультфильм, боевик, приключения, детский
Режиссер: Зак Стенц
В ролях: Пол-Микель Уильямс, Каусар Мохаммед, Райан Поттер, Райни Родригес, Роджер Крейг Сми, Джеймс Арнольд Тейлор, Шон Джамброне, Джефф Бергман, Фил Бакман, Бенджамин Флорес, Йон Рудницкий, Грег Чун.

О фильме:
Шестеро подростков весело проводят время на острове Нублар, рассматривая диплодоков и бегая по веревочным лестницам. Однако, в парке все клетки оказываются открыты, так что подросткам придётся научиться выживать.

 
Страна: США
Студия: DreamWorks Animation
Продолжительность: 8 х 00:24:00
Перевод: Профессиональный (дублированный)

Файл
Кодек: h.264
Качество: WEB-DL 1080p
Видео: MPEG-4 AVC, 1920x1080, 23,976 fps, 6 810 Kbps
Звук:
Аудио #1: E-AC3, 6 ch, 640 Kb/s - Дублированный
Аудио #2: E-AC3, 6 ch, 640 Kb/s - Английский
Субтитры: Русские, английские

Релиз от: ~NoobSaibot~


[+] Медиа-инфо
Video
ID                          : 1
Format                      : AVC
Format/Info                 : Advanced Video Codec
Format profile              : Main@L4
Format settings             : CABAC / 3 Ref Frames
Format settings, CABAC      : Yes
Format settings, Reference  : 3 frames
Codec ID                    : V_MPEG4/ISO/AVC
Duration                    : 24 min 18 s
Bit rate mode               : Variable
Bit rate                    : 6 810 kb/s
Maximum bit rate            : 10.2 Mb/s
Width                       : 1 920 pixels
Height                      : 1 080 pixels
Display aspect ratio        : 16:9
Frame rate mode             : Constant
Frame rate                  : 23.976 (24000/1001) FPS
Color space                 : YUV
Chroma subsampling          : 4:2:0
Bit depth                   : 8 bits
Scan type                   : Progressive
Bits/(Pixel*Frame)          : 0.137
Stream size                 : 1.12 GiB (84%)
Writing library             : x264 core 148 r2722 1b0121b
Encoding settings           : cabac=1 / ref=3 / deblock=1:0:0 / analyse=0x1:0x111 / me=umh / subme=10 / psy=1 / psy_rd=1.00:0.00 / mixed_ref=1 / me_range=24 / chroma_me=1 / trellis=2 / 8x8dct=0 / cqm=0 / deadzone=21,11 / fast_pskip=1 / chroma_qp_offset=-2 / threads=6 / lookahead_threads=1 / sliced_threads=0 / nr=0 / decimate=1 / interlaced=0 / bluray_compat=0 / stitchable=1 / constrained_intra=0 / bframes=2 / b_pyramid=0 / b_adapt=2 / b_bias=0 / direct=3 / weightb=1 / open_gop=0 / weightp=2 / keyint=250 / keyint_min=23 / scenecut=0 / intra_refresh=0 / rc_lookahead=48 / rc=2pass / mbtree=1 / bitrate=6810 / ratetol=1.0 / qcomp=0.50 / qpmin=6 / qpmax=51 / qpstep=4 / cplxblur=20.0 / qblur=0.5 / vbv_maxrate=10215 / vbv_bufsize=13620 / nal_hrd=vbr / filler=0 / ip_ratio=1.40 / aq=1:1.00
Default                     : Yes
Forced                      : No

Audio #1
ID                          : 2
Format                      : E-AC-3
Format/Info                 : Enhanced AC-3
Commercial name             : Dolby Digital Plus
Codec ID                    : A_EAC3
Duration                    : 24 min 18 s
Bit rate mode               : Constant
Bit rate                    : 640 kb/s
Channel(s)                  : 6 channels
Channel layout              : L R C LFE Ls Rs
Sampling rate               : 48.0 kHz
Frame rate                  : 31.250 FPS (1536 SPF)
Compression mode            : Lossy
Stream size                 : 111 MiB (8%)
Title                       : Russian
Language                    : Russian
Service kind                : Complete Main
Default                     : No
Forced                      : No

Audio #2
ID                          : 3
Format                      : E-AC-3
Format/Info                 : Enhanced AC-3
Commercial name             : Dolby Digital Plus
Codec ID                    : A_EAC3
Duration                    : 24 min 18 s
Bit rate mode               : Constant
Bit rate                    : 640 kb/s
Channel(s)                  : 6 channels
Channel layout              : L R C LFE Ls Rs
Sampling rate               : 48.0 kHz
Frame rate                  : 31.250 FPS (1536 SPF)
Compression mode            : Lossy
Stream size                 : 111 MiB (8%)
Title                       : English
Language                    : English
Service kind                : Complete Main
Default                     : No
Forced                      : No

Text #1
ID                          : 4
Format                      : UTF-8
Codec ID                    : S_TEXT/UTF8
Codec ID/Info               : UTF-8 Plain Text
Duration                    : 22 min 34 s
Bit rate                    : 80 b/s
Count of elements           : 261
Stream size                 : 13.2 KiB (0%)
Title                       : Russian
Language                    : Russian
Default                     : No
Forced                      : No

Text #2
ID                          : 5
Format                      : UTF-8
Codec ID                    : S_TEXT/UTF8
Codec ID/Info               : UTF-8 Plain Text
Duration                    : 22 min 39 s
Bit rate                    : 64 b/s
Count of elements           : 358
Stream size                 : 10.7 KiB (0%)
Title                       : English
Language                    : English
Default                     : No
Forced                      : No



Скриншоты:
[+] Всего файлов в раздаче - 8:
Jurassic.World.Camp.Cretaceous.S01E07.Last.Day.of.Camp.1080p.NF.WEB-DL.mkv899.67 MB
Jurassic.World.Camp.Cretaceous.S01E08.End.of.the.Line.1080p.NF.WEB-DL.mkv1.02 GB
Jurassic.World.Camp.Cretaceous.S01E03.the.Cattle.Drive.1080p.NF.WEB-DL.mkv1.02 GB
Jurassic.World.Camp.Cretaceous.S01E04.Things.Fall.Apart.1080p.NF.WEB-DL.mkv1.05 GB
Jurassic.World.Camp.Cretaceous.S01E05.Happy.Birthday.Eddie!.1080p.NF.WEB-DL.mkv1.10 GB
Jurassic.World.Camp.Cretaceous.S01E02.Secrets.1080p.NF.WEB-DL.mkv1.17 GB
Jurassic.World.Camp.Cretaceous.S01E06.Welcome.to.Jurassic.World.1080p.NF.WEB-DL.mkv1.28 GB
Jurassic.World.Camp.Cretaceous.S01E01.Camp.Cretaceous.1080p.NF.WEB-DL.mkv1.33 GB

Похожие раздачи по запросу - юрского:
2020-09-20 U Мир Юрского периода: Лагерь Мелового периода / Jurassic World: Camp Cretaceous [S01] (2020) WEB-DLRip от MegaPeer | Netflix 2.98 GB ↑ 361 ↓ 200

Отзывы
Зарегистрируйтесь чтобы добавить комментарий.
Загрузите программу
  uTorrent.exe
Обратная связь
Copyleft ©