↑↓torrent.by
Поиск
Логин: Регистрация
Пароль: Восстановить пароль

Куриный забег / Elleville Elfrid / Ella Bella Bingo (2020) WEB-DL 1080p | iTunes

Скачать kurinyy-zabeg-elleville-elfrid-ella-bella-bingo-2020-web-dl-1080p-itunes.torrent
U Магнитная ссылка Размер: 2.77 GB Раздают: 98 Качают: 73 Добавлен: 2020-09-19 19:04:26
Куриный забег / Elleville Elfrid / Ella Bella Bingo (2020) WEB-DL 1080p | iTunes

Информация
Название: Куриный забег
Оригинальное название: Elleville Elfrid / Ella Bella Bingo
Год выхода: 2020
Жанр: мультфильм
Режиссер: Атле Солберг Блаксет, Франк Мосвольд
В ролях: Нинни Споне, Бьярте Ельмеланн, Оскар Фьельдстад-Бергхейм, Элиас Совольд-Симонсен, Йоханнес Йонер, Гард Б. Эйдсвольд, Хеге Скёйен, Бьорн Сундквист, Мара Жюно

Описание:  Элла и Генри - неразлучные друзья с самого детства. Элла очень дорожит дружбой с Генри и готова ради него на все, даже открыть персональный цирк. В этом цирке все выглядит иначе: курицы вместо медведей, дети вместо фокусников, фейерверки вместо света софитов. И все бы ничего, но в какой-то момент Элла теряет контроль над происходящим и все переворачивается с ног на голову. Сможет ли Элла пройти через все испытания и сохранить цирк, а вместе с ним и дружбу?

Выпущено: Норвегия / Gimpville AS, Kool Production AS
Продолжительность: 01:19:32
Озвучивание: Дублированное | iTunes

Файл
Формат: MKV
Качество: WEB-DL 1080p
Видео: MPEG-4 AVC, 4598 Kb/s, 1920x806
Аудио: Russian: 48 kHz, AC3 Dolby Digital, 3/2 (L, C, R, l, r) + LFE ch, ~384 Kbps
Субтитры: Нет
Дополнительно: Сохранены оригинальные чаптеры.

Релиз:


[+] MediaInfo:
Video
ID : 1
Format : AVC
Format/Info : Advanced Video Codec
Format profile : High@L4
Format settings : CABAC / 5 Ref Frames
Format settings, CABAC : Yes
Format settings, Reference : 5 frames
Format settings, GOP : N=1
Codec ID : V_MPEG4/ISO/AVC
Duration : 1 h 19 min
Bit rate : 4 598 kb/s
Width : 1 920 pixels
Height : 806 pixels
Display aspect ratio : 2.40:1
Frame rate mode : Constant
Frame rate : 24.000 FPS
Color space : YUV
Chroma subsampling : 4:2:0
Bit depth : 8 bits
Scan type : Progressive
Bits/(Pixel*Frame) : 0.124
Stream size : 2.55 GiB (92%)
Title : ELLEVILLE_ELFRID_2020_WEB-DL_1080p-BLUEBIRD
Language : English
Default : Yes
Forced : No
Color range : Limited
Color primaries : BT.709
Transfer characteristics : BT.709
Matrix coefficients : BT.709

Audio
ID : 2
Format : AC-3
Format/Info : Audio Coding 3
Commercial name : Dolby Digital
Codec ID : A_AC3
Duration : 1 h 19 min
Bit rate mode : Constant
Bit rate : 384 kb/s
Channel(s) : 6 channels
Channel layout : L R C LFE Ls Rs
Sampling rate : 48.0 kHz
Frame rate : 31.250 FPS (1536 SPF)
Compression mode : Lossy
Delay relative to video : -42 ms
Stream size : 218 MiB (8%)
Title : [DUB] DD 5.1 @ 384 kbps (iTunes)
Language : Russian
Service kind : Complete Main
Default : Yes
Forced : No

Menu
00:00:00.000 : en:Глава 1
00:08:25.708 : en:Глава 2
00:16:42.749 : en:Глава 3
00:25:09.832 : en:Глава 4
00:33:08.707 : en:Глава 5
00:41:49.957 : en:Глава 6
00:49:59.998 : en:Глава 7
00:58:13.873 : en:Глава 8
01:06:28.539 : en:Глава 9
01:14:12.830 : en:Глава 10



Скриншоты:
[+] Всего файлов в раздаче - 1:
ELLEVILLE_ELFRID_2020_WEB-DL_1080p-BLUEBIRD.mkv2.77 GB

Похожие раздачи по запросу - куриный:
2020-09-19 U Куриный забег / Elleville Elfrid / Ella Bella Bingo (2020) WEB-DLRip от ELEKTRI4KA | iTunes 1.37 GB ↑ 98 ↓ 60

Отзывы
Зарегистрируйтесь чтобы добавить комментарий.
Загрузите программу
  uTorrent.exe
Обратная связь
Copyleft ©